\m/ 80's metal \m/

Информационно-аналитический форум "80 см пыли" (In Search We Trust) "У нас никто никуда не спешит"
Me For You - http://me-4u.com
It is currently 20 Oct 2019

All times are UTC + 3 hours

Spoiler
Chat - temporary registration for foreign users (please leave your application here)







Post new topic Reply to topic  [ 23 posts ]  Go to page Previous  1, 2
Author Message
 
PostPosted: 22 Jan 2017 
Генеральный thrasher
User avatar
Joined: 03 Oct 2008
Posts: 3741
Lоcаtion: Ханты-Мансийский АО
Age: 44
Name: Сергей
Переиздания классики от прошлого года.Может кому-нибудь нужно в коллекцию.

Image

Year:1986 (2016 Re-Issue)
Style:Speed/Thrash Metal
Country:U.S.A.
Archive:Flac+Cue+Log+Scans
Source:my CD
Size:250Mb
Label:High Roller Records

Tracklist:
01. Ordered To Kill 04:23
02. Dawn Of Death 03:19
03. Capitulation 04:06
04. Rapechase 03:32
05. The Hammer (Motörhead cover) 02:43
06. Mortally Wounded 03:03
07. Ilsa (She Wolf of the S.S.) 05:52
08. Eat Lead 04:45
09. Fuckadafi 03:44

"Cue"
REM GENRE "Thrash Metal"
REM DATE 2016
REM DISCID 73084F09
REM COMMENT "ExactAudioCopy v1.1"
PERFORMER "At War"
TITLE "Ordered To Kill"
FILE "At War - Ordered To Kill.flac" WAVE
TRACK 01 AUDIO
TITLE "Ordered To Kill"
PERFORMER "At War"
INDEX 01 00:00:00
TRACK 02 AUDIO
TITLE "Dawn Of Death"
PERFORMER "At War"
INDEX 01 04:22:62
TRACK 03 AUDIO
TITLE "Capitulation"
PERFORMER "At War"
INDEX 01 07:41:69
TRACK 04 AUDIO
TITLE "Rapechase"
PERFORMER "At War"
INDEX 01 11:47:45
TRACK 05 AUDIO
TITLE "The Hammer"
PERFORMER "At War"
INDEX 01 15:19:50
TRACK 06 AUDIO
TITLE "Mortally Wounded"
PERFORMER "At War"
INDEX 01 18:02:30
TRACK 07 AUDIO
TITLE "Ilsa (She Wolf of the S.S.)"
PERFORMER "At War"
INDEX 01 21:05:53
TRACK 08 AUDIO
TITLE "Eat Lead"
PERFORMER "At War"
INDEX 01 26:57:73
TRACK 09 AUDIO
TITLE "Fuckadafi"
PERFORMER "At War"
INDEX 01 31:42:65

"Log"
Exact Audio Copy V1.1 from 23. June 2015

Отчёт EAC об извлечении, выполненном 1. апреля 2016, 10:55

At War / Ordered To Kill

Дисковод: HL-DT-STDVDRAM GTA0N Adapter: 1 ID: 0

Режим чтения : Достоверность
Использование точного потока : Да
Отключение кэша аудио : Да
Использование указателей C2 : Нет

Коррекция смещения при чтении : 102
Способность читать области Lead-in и Lead-out : Нет
Заполнение пропущенных сэмплов тишиной : Да
Удаление блоков с тишиной в начале и конце : Нет
При вычислениях CRC использовались нулевые сэмплы : Да
Интерфейс : Встроенный Win32-интерфейс для Win NT/2000

Выходной формат : Пользовательский кодировщик
Выбранный битрейт : 768 kBit/s
Качество : Высокий
Добавление ID3-тега : Нет
Утилита сжатия : C:\Program Files (x86)\Exact Audio Copy\FLAC\FLAC.EXE
Дополнительные параметры : -6 -V -T "ARTIST=%artist%" -T "TITLE=%title%" -T "ALBUM=%albumtitle%" -T "DATE=%year%" -T "TRACKNUMBER=%tracknr%" -T "GENRE=%genre%" -T "COMMENT=%comment%" -T "BAND=%albuminterpret%" -T "ALBUMARTIST=%albuminterpret%" -T "COMPOSER=%composer%" %haslyrics%--tag-from-file=LYRICS="%lyricsfile%"%haslyrics% -T "DISCNUMBER=%cdnumber%" -T "TOTALDISCS=%totalcds%" -T "TOTALTRACKS=%numtracks%" %hascover%--picture="%coverfile%"%hascover% %source% -o %dest%


TOC извлечённого CD

Трек | Старт | Длительность | Начальный сектор | Конечный сектор
---------------------------------------------------------------------
1 | 0:00.00 | 4:22.62 | 0 | 19711
2 | 4:22.62 | 3:19.07 | 19712 | 34643
3 | 7:41.69 | 4:05.51 | 34644 | 53069
4 | 11:47.45 | 3:32.05 | 53070 | 68974
5 | 15:19.50 | 2:42.55 | 68975 | 81179
6 | 18:02.30 | 3:03.23 | 81180 | 94927
7 | 21:05.53 | 5:52.20 | 94928 | 121347
8 | 26:57.73 | 4:44.67 | 121348 | 142714
9 | 31:42.65 | 3:44.31 | 142715 | 159545


Характеристики диапазона извлечения и сообщения об ошибках

Выбранный диапазон

Имя файла C:\Users\магазин\Music\At War - Ordered To Kill.wav

Пиковый уровень 97.1 %
Скорость извлечения 3.7 X
Качество диапазона 100.0 %
CRC копии 87B9DCDA
Копирование... OK

Ошибок не произошло


AccurateRip: сводка

Трек 1 отсутствует в базе данных
Трек 2 отсутствует в базе данных
Трек 3 отсутствует в базе данных
Трек 4 отсутствует в базе данных
Трек 5 отсутствует в базе данных
Трек 6 отсутствует в базе данных
Трек 7 отсутствует в базе данных
Трек 8 отсутствует в базе данных
Трек 9 отсутствует в базе данных

Ни одного трека нет в базе AccurateRip

Конец отчёта

---- CUETools DB Plugin V2.1.6

[CTDB TOCID: po0TY8_toAPOLcMWNTZzS0isQYg-] disk not present in database
Submit result: po0TY8_toAPOLcMWNTZzS0isQYg- has been uploaded


Ordered To Kill

Image

Year:1988 (2016 Re-Issue)
Style:Speed/Thrash Metal
Country:U.S.A.
Archive:Flac+Cue+Log+Scans
Source:my CD
Size:255Mb
Label:High Roller Records

Tracklist:
01. F.Y.I. 00:41
02. Conscientious Objector 04:23
03. Creed Of The Sniper 02:44
04. Covert Sins 05:39
05. Crush Your Life 04:31
06. Gutless Sympathizer 04:18
07. Church And State 03:48
08. Felon's Guilt 05:22
09. Thinkin' 00:46
10. The Example 03:23

"Cue"
REM GENRE "Thrash Metal"
REM DATE 2016
REM DISCID 7F08560A
REM COMMENT "ExactAudioCopy v1.1"
PERFORMER "At War"
TITLE "Retaliatory Strike"
FILE "At War - Retaliatory Strike.flac" WAVE
TRACK 01 AUDIO
TITLE "F.Y.I."
PERFORMER "At War"
INDEX 01 00:00:00
TRACK 02 AUDIO
TITLE "Conscientious Objector"
PERFORMER "At War"
INDEX 01 00:41:36
TRACK 03 AUDIO
TITLE "Creed Of The Sniper"
PERFORMER "At War"
INDEX 01 05:04:06
TRACK 04 AUDIO
TITLE "Covert Sins"
PERFORMER "At War"
INDEX 01 07:48:42
TRACK 05 AUDIO
TITLE "Crush Your Life"
PERFORMER "At War"
INDEX 00 13:27:13
INDEX 01 13:27:14
TRACK 06 AUDIO
TITLE "Gutless Sympathizer"
PERFORMER "At War"
INDEX 00 17:58:04
INDEX 01 17:58:05
TRACK 07 AUDIO
TITLE "Church And State"
PERFORMER "At War"
INDEX 01 22:15:68
TRACK 08 AUDIO
TITLE "Felon's Guilt"
PERFORMER "At War"
INDEX 01 26:04:25
TRACK 09 AUDIO
TITLE "Thinkin'"
PERFORMER "At War"
INDEX 01 31:25:65
TRACK 10 AUDIO
TITLE "The Example"
PERFORMER "At War"
INDEX 01 32:11:40

"Log"
Exact Audio Copy V1.1 from 23. June 2015

Отчёт EAC об извлечении, выполненном 1. апреля 2016, 11:12

At War / Retaliatory Strike

Дисковод: HL-DT-STDVDRAM GTA0N Adapter: 1 ID: 0

Режим чтения : Достоверность
Использование точного потока : Да
Отключение кэша аудио : Да
Использование указателей C2 : Нет

Коррекция смещения при чтении : 102
Способность читать области Lead-in и Lead-out : Нет
Заполнение пропущенных сэмплов тишиной : Да
Удаление блоков с тишиной в начале и конце : Нет
При вычислениях CRC использовались нулевые сэмплы : Да
Интерфейс : Встроенный Win32-интерфейс для Win NT/2000

Выходной формат : Пользовательский кодировщик
Выбранный битрейт : 768 kBit/s
Качество : Высокий
Добавление ID3-тега : Нет
Утилита сжатия : C:\Program Files (x86)\Exact Audio Copy\FLAC\FLAC.EXE
Дополнительные параметры : -6 -V -T "ARTIST=%artist%" -T "TITLE=%title%" -T "ALBUM=%albumtitle%" -T "DATE=%year%" -T "TRACKNUMBER=%tracknr%" -T "GENRE=%genre%" -T "COMMENT=%comment%" -T "BAND=%albuminterpret%" -T "ALBUMARTIST=%albuminterpret%" -T "COMPOSER=%composer%" %haslyrics%--tag-from-file=LYRICS="%lyricsfile%"%haslyrics% -T "DISCNUMBER=%cdnumber%" -T "TOTALDISCS=%totalcds%" -T "TOTALTRACKS=%numtracks%" %hascover%--picture="%coverfile%"%hascover% %source% -o %dest%


TOC извлечённого CD

Трек | Старт | Длительность | Начальный сектор | Конечный сектор
---------------------------------------------------------------------
1 | 0:00.00 | 0:41.36 | 0 | 3110
2 | 0:41.36 | 4:22.45 | 3111 | 22805
3 | 5:04.06 | 2:44.36 | 22806 | 35141
4 | 7:48.42 | 5:38.47 | 35142 | 60538
5 | 13:27.14 | 4:30.66 | 60539 | 80854
6 | 17:58.05 | 4:17.63 | 80855 | 100192
7 | 22:15.68 | 3:48.32 | 100193 | 117324
8 | 26:04.25 | 5:21.40 | 117325 | 141439
9 | 31:25.65 | 0:45.50 | 141440 | 144864
10 | 32:11.40 | 3:23.05 | 144865 | 160094


Характеристики диапазона извлечения и сообщения об ошибках

Выбранный диапазон

Имя файла C:\Users\магазин\Music\At War - Retaliatory Strike.wav

Пиковый уровень 99.0 %
Скорость извлечения 3.7 X
Качество диапазона 100.0 %
CRC копии 2CC88061
Копирование... OK

Ошибок не произошло


AccurateRip: сводка

Трек 1 отсутствует в базе данных
Трек 2 отсутствует в базе данных
Трек 3 отсутствует в базе данных
Трек 4 отсутствует в базе данных
Трек 5 отсутствует в базе данных
Трек 6 отсутствует в базе данных
Трек 7 отсутствует в базе данных
Трек 8 отсутствует в базе данных
Трек 9 отсутствует в базе данных
Трек 10 отсутствует в базе данных

Ни одного трека нет в базе AccurateRip

Конец отчёта

---- CUETools DB Plugin V2.1.6

[CTDB TOCID: w1HmawedetuDfWud5TwegjZaXxg-] disk not present in database
Submit result: w1HmawedetuDfWud5TwegjZaXxg- has been uploaded


Retaliatory Strike


Top
 Profile  
 
 
PostPosted: 07 Feb 2017 
5-speed satisfactor
User avatar
Joined: 16 Feb 2009
Posts: 3774
Lоcаtion: New York, USA
Age: 41
Name: Leonid
Ну скачай. Ну хотя б Куй скачай. В архивах кстати уппмянули отдельный трек. Только названия не дали.

_________________
Death rules! Metal to all who oppose!


Top
 Profile  
 
 
PostPosted: 07 Feb 2017 
консэрваторъ
User avatar
Joined: 11 Aug 2007
Posts: 17313
Lоcаtion: Псков
Age: 45
Name: Сергей
Лёнь, я верю тебе на слово, но название в куе - это кто его придумал то?.. С какого?..

_________________
THRASH 'EM ALL


Top
 Profile E-mail  
 
 
PostPosted: 08 Feb 2017 
А может смените мне статус?..
Joined: 03 Jul 2009
Posts: 885
Lоcаtion: Serbia
Name: Laki
But did he do it from the master tapes?


I don't know, but if he used vinyl he's done excellent job in cleaning and restoring. I don't mind remasters done from vinyl. Lots of times masters don't exist anymore, so vinyl is second best thing. At war and Possessed sound much better than originals. I was pleasantly surprised how Holy Moses albums sound, Queen of Siam didn't exist in good quality.


Top
 Profile E-mail  
 
Display posts from previous:  Sort by  
Post new topic Reply to topic  [ 23 posts ]  Go to page Previous  1, 2

All times are UTC + 3 hours


Who is online

Users browsing this forum: No registered users and 2 guests


You cannot post new topics in this forum
You cannot reply to topics in this forum
You cannot edit your posts in this forum
You cannot delete your posts in this forum
You cannot post attachments in this forum

Search for:
Яндекс.Метрика
Powered by phpBB © 2000, 2002, 2005, 2007 phpBB Group