\m/ 80's metal \m/

Информационно-аналитический форум "80 см пыли" (In Search We Trust) "У нас никто никуда не спешит"
Me For You - http://me-4u.com
It is currently 19 Oct 2019

All times are UTC + 3 hours

Spoiler
Chat - temporary registration for foreign users (please leave your application here)







Post new topic Reply to topic  [ 2 posts ] 
Author Message
 
PostPosted: 26 Jun 2016 
5-speed satisfactor
User avatar
Joined: 16 Feb 2009
Posts: 3774
Lоcаtion: New York, USA
Age: 41
Name: Leonid
Мрачные ребята.

Этот.

Оформите.

5 дней.


https://we.tl/goMrAB63SI

Image
Image

1 Twisted Mass Of Burnt Decay - 02:15
2 In The Grip Of Winter - 04:08
3 Fleshcrawl - 00:36
4 Torn From The Womb - 03:19
5 Slaughterday - 04:04
6 Dead - 03:18
7 Robbing The Grave - 04:20
8 Hole In The Head - 06:03
9 Destined To Fester - 04:34
10 Bonesaw - 00:45
11 Dark Crusade - 03:55
12 Mental Funeral - 00:37

TPT:

log
Exact Audio Copy V0.99 prebeta 5 from 4. May 2009

EAC extraction logfile from 1. June 2016, 8:00

Autopsy / Mental Funeral

Used drive : PLEXTOR DVDR PX-760A Adapter: 4 ID: 0

Read mode : Secure
Utilize accurate stream : Yes
Defeat audio cache : Yes
Make use of C2 pointers : No

Read offset correction : 30
Overread into Lead-In and Lead-Out : Yes
Fill up missing offset samples with silence : Yes
Delete leading and trailing silent blocks : No
Null samples used in CRC calculations : No
Used interface : Installed external ASPI interface

Used output format : Internal WAV Routines
Sample format : 44.100 Hz; 16 Bit; Stereo


TOC of the extracted CD

Track | Start | Length | Start sector | End sector
---------------------------------------------------------
1 | 0:00.47 | 2:14.50 | 47 | 10146
2 | 2:15.22 | 4:09.10 | 10147 | 28831
3 | 6:24.32 | 0:35.38 | 28832 | 31494
4 | 6:59.70 | 3:19.45 | 31495 | 46464
5 | 10:19.40 | 4:12.47 | 46465 | 65411
6 | 14:32.12 | 3:37.48 | 65412 | 81734
7 | 18:09.60 | 4:19.57 | 81735 | 101216
8 | 22:29.42 | 6:03.33 | 101217 | 128474
9 | 28:33.00 | 4:33.10 | 128475 | 148959
10 | 33:06.10 | 0:45.60 | 148960 | 152394
11 | 33:51.70 | 3:57.05 | 152395 | 170174
12 | 37:49.00 | 0:37.57 | 170175 | 173006


Range status and errors

Selected range

Filename C:\Shared\rips\Autopsy\Mental Funeral\Autopsy - Mental Funeral.wav

Peak level 100.0 %
Range quality 100.0 %
Copy CRC D2CFAB2B
Copy OK

No errors occurred

End of status report

------------------------------------------------------------

Exact Audio Copy V0.99 prebeta 5 from 4. May 2009

EAC extraction logfile from 1. June 2016, 20:07

Autopsy / Mental Funeral

Used drive : PLEXTOR DVDR PX-760A Adapter: 4 ID: 0

Read mode : Secure
Utilize accurate stream : Yes
Defeat audio cache : Yes
Make use of C2 pointers : No

Read offset correction : 11202
Overread into Lead-In and Lead-Out : Yes
Fill up missing offset samples with silence : Yes
Delete leading and trailing silent blocks : No
Null samples used in CRC calculations : No
Used interface : Installed external ASPI interface
Gap handling : Not detected, thus appended to previous track

Used output format : Internal WAV Routines
Sample format : 44.100 Hz; 16 Bit; Stereo


TOC of the extracted CD

Track | Start | Length | Start sector | End sector
---------------------------------------------------------
1 | 0:00.47 | 2:14.50 | 47 | 10146
2 | 2:15.22 | 4:09.10 | 10147 | 28831
3 | 6:24.32 | 0:35.38 | 28832 | 31494
4 | 6:59.70 | 3:19.45 | 31495 | 46464
5 | 10:19.40 | 4:12.47 | 46465 | 65411
6 | 14:32.12 | 3:37.48 | 65412 | 81734
7 | 18:09.60 | 4:19.57 | 81735 | 101216
8 | 22:29.42 | 6:03.33 | 101217 | 128474
9 | 28:33.00 | 4:33.10 | 128475 | 148959
10 | 33:06.10 | 0:45.60 | 148960 | 152394
11 | 33:51.70 | 3:57.05 | 152395 | 170174
12 | 37:49.00 | 0:37.57 | 170175 | 173006


Track 12

Filename C:\Shared\rips\Autopsy\Mental Funeral\12. Mental Funeral.wav

Peak level 43.3 %
Track quality 100.0 %
Copy CRC D53DABF1
Copy OK

No errors occurred

End of status report

cue
REM GENRE "Death Metal"
REM DATE 1991
REM DISCID 9209020C
REM COMMENT "ExactAudioCopy v0.99pb5"
PERFORMER "Autopsy"
TITLE "Mental Funeral"
FILE "Autopsy - Mental Funeral.wav" WAVE
TRACK 01 AUDIO
TITLE "Twisted Mass Of Burnt Decay"
PERFORMER "Autopsy"
INDEX 00 00:00:00
INDEX 01 00:00:47
TRACK 02 AUDIO
TITLE "In the Grip Of Winter"
PERFORMER "Autopsy"
INDEX 01 02:15:22
TRACK 03 AUDIO
TITLE "Fleshcrawl"
PERFORMER "Autopsy"
INDEX 01 06:24:32
TRACK 04 AUDIO
TITLE "Torn From The Womb"
PERFORMER "Autopsy"
INDEX 01 06:59:70
TRACK 05 AUDIO
TITLE "Slaughterday"
PERFORMER "Autopsy"
INDEX 01 10:19:40
TRACK 06 AUDIO
TITLE "Dead"
PERFORMER "Autopsy"
INDEX 01 14:32:12
TRACK 07 AUDIO
TITLE "Robbing The Grave"
PERFORMER "Autopsy"
INDEX 01 18:09:60
TRACK 08 AUDIO
TITLE "Hole In The Head"
PERFORMER "Autopsy"
INDEX 00 22:28:62
INDEX 01 22:29:42
TRACK 09 AUDIO
TITLE "Destined To Fester"
PERFORMER "Autopsy"
INDEX 00 28:32:00
INDEX 01 28:33:00
TRACK 10 AUDIO
TITLE "Bonesaw"
PERFORMER "Autopsy"
INDEX 01 33:06:10
TRACK 11 AUDIO
TITLE "Dark Crusade"
PERFORMER "Autopsy"
INDEX 01 33:51:70
TRACK 12 AUDIO
TITLE "Mental Funeral"
PERFORMER "Autopsy"
INDEX 01 37:49:00

_________________
Death rules! Metal to all who oppose!


Top
 Profile  
 
 
PostPosted: 28 Jun 2016 
Хиппей (support team)
User avatar
Joined: 30 Jul 2007
Posts: 114950
Lоcаtion: Киев (Kyiv, UA)
Age: 46
Name: Andrey
:thanx:

mirror: iFolder l Narod l M-Cloud

Щас слушается как некая попсня фунерал-думовая

_________________


Top
 Profile E-mail  
 
Display posts from previous:  Sort by  
Post new topic Reply to topic  [ 2 posts ] 

All times are UTC + 3 hours


Who is online

Users browsing this forum: No registered users and 3 guests


You cannot post new topics in this forum
You cannot reply to topics in this forum
You cannot edit your posts in this forum
You cannot delete your posts in this forum
You cannot post attachments in this forum

Search for:
Яндекс.Метрика
cron
Powered by phpBB © 2000, 2002, 2005, 2007 phpBB Group