\m/ 80's metal \m/

Информационно-аналитический форум "80 см пыли" (In Search We Trust) "У нас никто никуда не спешит"
Me For You - http://me-4u.com
It is currently 20 Oct 2019

All times are UTC + 3 hours

Spoiler
Chat - temporary registration for foreign users (please leave your application here)







Post new topic Reply to topic  [ 9 posts ] 
Author Message
 
PostPosted: 24 Feb 2016 
Генеральный thrasher
User avatar
Joined: 03 Oct 2008
Posts: 3741
Lоcаtion: Ханты-Мансийский АО
Age: 44
Name: Сергей
Image

Year:1993 (2015 Re-Issue)
Style:Thrash Metal
Country:Brazil
Archive:Flac+Cue+Log+Scans
Size:402Mb
Source:my CD
Label:Rising Records

Line-Up:
Daniel Stilling - guitars
Alex Nasser - drums
William Rodsam - bass,vocals
Ico Almendra - vocals,guitars

Tracklist:
01. Old Psychotic Eyes 04:28
02. Serial Killer 04:22
03. Inner Verses 04:18
04. The Wasp 04:16
05. Forgotten Past 04:20
06. Yes, Sir! 03:32
07. Just Another Morning 03:48
08. Wings 04:34
09. Wheels of Madness 04:48
10. Last Song 04:04
Bonus Tracks:
11. Time Waits for No One * 04:58
12. Yes, Sir! * 03:25
13. When I Saw You Dead * 03:50

"Cue"
REM GENRE "Thrash Metal"
REM DATE 2015
REM DISCID A80CD30D
REM COMMENT "ExactAudioCopy v1.1"
PERFORMER "Avalon"
TITLE "Old Psychotic Eyes"
FILE "Avalon - Old Psychotic Eyes.flac" WAVE
TRACK 01 AUDIO
TITLE "Old Psychotic Eyes"
PERFORMER "Avalon"
FLAGS DCP
INDEX 01 00:00:00
TRACK 02 AUDIO
TITLE "Serial Killer"
PERFORMER "Avalon"
FLAGS DCP
INDEX 01 04:27:66
TRACK 03 AUDIO
TITLE "Inner Verses"
PERFORMER "Avalon"
FLAGS DCP
INDEX 01 08:49:43
TRACK 04 AUDIO
TITLE "The Wasp"
PERFORMER "Avalon"
FLAGS DCP
INDEX 01 13:07:45
TRACK 05 AUDIO
TITLE "Forgotten Past"
PERFORMER "Avalon"
FLAGS DCP
INDEX 01 17:23:18
TRACK 06 AUDIO
TITLE "Yes, Sir!"
PERFORMER "Avalon"
FLAGS DCP
INDEX 01 21:43:54
TRACK 07 AUDIO
TITLE "Just Another Morning"
PERFORMER "Avalon"
FLAGS DCP
INDEX 01 25:15:62
TRACK 08 AUDIO
TITLE "Wings"
PERFORMER "Avalon"
FLAGS DCP
INDEX 01 29:03:42
TRACK 09 AUDIO
TITLE "Wheels Of Madness"
PERFORMER "Avalon"
FLAGS DCP
INDEX 01 33:37:67
TRACK 10 AUDIO
TITLE "Last Song"
PERFORMER "Avalon"
FLAGS DCP
INDEX 01 38:25:69
TRACK 11 AUDIO
TITLE "Time Waits for No One"
PERFORMER "Avalon"
FLAGS DCP
INDEX 01 42:30:10
TRACK 12 AUDIO
TITLE "Yes, Sir!"
PERFORMER "Avalon"
FLAGS DCP
INDEX 01 47:28:35
TRACK 13 AUDIO
TITLE "When I Saw You Dead"
PERFORMER "Avalon"
FLAGS DCP
INDEX 01 50:53:15

"Log"
Exact Audio Copy V1.1 from 23. June 2015

Отчёт EAC об извлечении, выполненном 19. января 2016, 10:48

Avalon / Old Psychotic Eyes

Дисковод: HL-DT-STDVDRAM GTA0N Adapter: 1 ID: 0

Режим чтения : Достоверность
Использование точного потока : Да
Отключение кэша аудио : Да
Использование указателей C2 : Нет

Коррекция смещения при чтении : 102
Способность читать области Lead-in и Lead-out : Нет
Заполнение пропущенных сэмплов тишиной : Да
Удаление блоков с тишиной в начале и конце : Нет
При вычислениях CRC использовались нулевые сэмплы : Да
Интерфейс : Встроенный Win32-интерфейс для Win NT/2000

Выходной формат : Пользовательский кодировщик
Выбранный битрейт : 768 kBit/s
Качество : Высокий
Добавление ID3-тега : Нет
Утилита сжатия : C:\Program Files (x86)\Exact Audio Copy\FLAC\FLAC.EXE
Дополнительные параметры : -6 -V -T "ARTIST=%artist%" -T "TITLE=%title%" -T "ALBUM=%albumtitle%" -T "DATE=%year%" -T "TRACKNUMBER=%tracknr%" -T "GENRE=%genre%" -T "COMMENT=%comment%" -T "BAND=%albuminterpret%" -T "ALBUMARTIST=%albuminterpret%" -T "COMPOSER=%composer%" %haslyrics%--tag-from-file=LYRICS="%lyricsfile%"%haslyrics% -T "DISCNUMBER=%cdnumber%" -T "TOTALDISCS=%totalcds%" -T "TOTALTRACKS=%numtracks%" %hascover%--picture="%coverfile%"%hascover% %source% -o %dest%


TOC извлечённого CD

Трек | Старт | Длительность | Начальный сектор | Конечный сектор
---------------------------------------------------------------------
1 | 0:00.00 | 4:27.66 | 0 | 20090
2 | 4:27.66 | 4:21.52 | 20091 | 39717
3 | 8:49.43 | 4:18.02 | 39718 | 59069
4 | 13:07.45 | 4:15.48 | 59070 | 78242
5 | 17:23.18 | 4:20.36 | 78243 | 97778
6 | 21:43.54 | 3:32.08 | 97779 | 113686
7 | 25:15.62 | 3:47.55 | 113687 | 130766
8 | 29:03.42 | 4:34.25 | 130767 | 151341
9 | 33:37.67 | 4:48.02 | 151342 | 172943
10 | 38:25.69 | 4:04.16 | 172944 | 191259
11 | 42:30.10 | 4:58.25 | 191260 | 213634
12 | 47:28.35 | 3:24.55 | 213635 | 228989
13 | 50:53.15 | 3:50.12 | 228990 | 246251


Характеристики диапазона извлечения и сообщения об ошибках

Выбранный диапазон

Имя файла C:\Users\магазин\Music\Avalon - Old Psychotic Eyes.wav

Пиковый уровень 100.0 %
Скорость извлечения 4.1 X
Качество диапазона 100.0 %
CRC копии 81973088
Копирование... OK

Ошибок не произошло


AccurateRip: сводка

Трек 1 отсутствует в базе данных
Трек 2 отсутствует в базе данных
Трек 3 отсутствует в базе данных
Трек 4 отсутствует в базе данных
Трек 5 отсутствует в базе данных
Трек 6 отсутствует в базе данных
Трек 7 отсутствует в базе данных
Трек 8 отсутствует в базе данных
Трек 9 отсутствует в базе данных
Трек 10 отсутствует в базе данных
Трек 11 отсутствует в базе данных
Трек 12 отсутствует в базе данных
Трек 13 отсутствует в базе данных

Ни одного трека нет в базе AccurateRip

Конец отчёта

---- CUETools DB Plugin V2.1.6

[CTDB TOCID: jzl4J.AVIPD5WTOskrnSmJk.hns-] disk not present in database
Submit result: jzl4J.AVIPD5WTOskrnSmJk.hns- has been uploaded


Old Psychotic Eyes


Top
 Profile  
 
 
PostPosted: 24 Feb 2016 
Alive Again
User avatar
Joined: 17 Dec 2008
Posts: 4747
Lоcаtion: Курск Воронеж Оскол
Age: 45
Name: Дмитрий
:thanx:


Top
 Profile E-mail  
 
 
PostPosted: 24 Feb 2016 
Прокъмитолист
User avatar
Joined: 12 Aug 2007
Posts: 6627
Lоcаtion: Санктъ-Петербуркъ
Age: 52
Name: Олекъ
:thanx:

_________________
прокъметол - это музыко, от которово есть прок (ы)


Top
 Profile  
 
 
PostPosted: 24 Feb 2016 
Хиппей (support team)
User avatar
Joined: 30 Jul 2007
Posts: 114953
Lоcаtion: Киев (Kyiv, UA)
Age: 46
Name: Andrey
:thanx:

mirror: iFolder l Narod l M-Cloud

_________________


Top
 Profile E-mail  
 
 
PostPosted: 24 Feb 2016 
Хиппей (support team)
User avatar
Joined: 30 Jul 2007
Posts: 114953
Lоcаtion: Киев (Kyiv, UA)
Age: 46
Name: Andrey
Уфф, как резанул слух чисто совковый акцент на первой песне :crazy:
Дальше уже попривык...

_________________


Top
 Profile E-mail  
 
 
PostPosted: 24 Feb 2016 
Хиппей (support team)
User avatar
Joined: 30 Jul 2007
Posts: 114953
Lоcаtion: Киев (Kyiv, UA)
Age: 46
Name: Andrey
Мдя...
По музыке и чисто технический альбом качественно сделан трэшак, но... Всё до такой степени неприлично и вторично, что еле дослушал весь релиз до финала.
зы. Зато последние трэки, бонусные, самые интересные.

3+/10

_________________


Top
 Profile E-mail  
 
 
PostPosted: 24 Feb 2016 
Хиппей (support team)
User avatar
Joined: 30 Jul 2007
Posts: 114953
Lоcаtion: Киев (Kyiv, UA)
Age: 46
Name: Andrey
Серёг, а это ж официальный ремастер, да? https://www.facebook.com/vingancamusic :scratch:

Добавлять ли его сюда... http://www.metal-archives.com/bands/Avalon/9639

зы. Ага, его уже добавили в... добавочные =) http://www.metal-archives.com/albums/Av ... yes/536817

_________________


Top
 Profile E-mail  
 
 
PostPosted: 25 Feb 2016 
ТрэшЭрос
User avatar
Joined: 18 Jul 2011
Posts: 2305
Lоcаtion: Гулькевичи
Age: 44
Name: Александр
:thanx:
А я и за 1994-й их не слышал... :oops:

_________________
Thrash no trash!!!


Top
 Profile E-mail  
 
 
PostPosted: 25 Feb 2016 
Генеральный thrasher
User avatar
Joined: 03 Oct 2008
Posts: 3741
Lоcаtion: Ханты-Мансийский АО
Age: 44
Name: Сергей
А 1994-го на CD у меня и нет.Он не переиздавался.А оригинальный диск пока не планирую брать.


Top
 Profile  
 
Display posts from previous:  Sort by  
Post new topic Reply to topic  [ 9 posts ] 

All times are UTC + 3 hours


Who is online

Users browsing this forum: No registered users and 1 guest


You cannot post new topics in this forum
You cannot reply to topics in this forum
You cannot edit your posts in this forum
You cannot delete your posts in this forum
You cannot post attachments in this forum

Search for:
Яндекс.Метрика
Powered by phpBB © 2000, 2002, 2005, 2007 phpBB Group