\m/ 80's metal \m/

Информационно-аналитический форум "80 см пыли" (In Search We Trust) "У нас никто никуда не спешит"
Me For You - http://me-4u.com
It is currently 16 Oct 2019

All times are UTC + 3 hours

Spoiler
Chat - temporary registration for foreign users (please leave your application here)







Post new topic Reply to topic  [ 13 posts ] 
Author Message
 
PostPosted: 31 Jan 2016 
Генеральный thrasher
User avatar
Joined: 03 Oct 2008
Posts: 3738
Lоcаtion: Ханты-Мансийский АО
Age: 44
Name: Сергей
Эта американская бригада записала два магнитоальбома в 1988 и 1991 годах.В 2014 обе ленты были ремастированы лейблом Divebomb Records и выпущены на CD.

Image

Year:2014
Style:Thrash Metal
Country:U.S.A.
Archive:Flac+Cue+Log+Scans
Size:576Mb
Source:my CD
Label:Divebomb Records

Tracklist:
Television Slave (1991)
01. Jesus Freak 03:01
02. Apologies 06:07
03. They Live 05:20
04. Little Man In A Boat 03:05
05. Television Slave 08:16
06. Evolution's Mistake 04:11
07. Deadly Disease 02:06
08. Ignorance 02:18
09. Our New World 04:23
10. Chaos 04:03
11. Demons 03:07
Welcome (1988)
12. A-Jam (Nottin') 01:13
13. Under the Lights 02:21
14. Death From Above 02:55
15. D.F.O.S. 04:06
16. Hellsex Mosh 03:00
17. Welcome 02:39
18. Social Distortion 04:33
19. Death Metal 02:33
20. Life Support 01:37

"Cue"
REM GENRE "Thrash Metal"
REM DATE 2014
REM DISCID 45109314
REM COMMENT "ExactAudioCopy v0.99pb5"
PERFORMER "Azrael"
TITLE "Television Slave"
FILE "Azrael - Television Slave.flac" WAVE
TRACK 01 AUDIO
TITLE "Jesus Freak"
PERFORMER "Azrael"
FLAGS DCP
INDEX 01 00:00:00
TRACK 02 AUDIO
TITLE "Apologies"
PERFORMER "Azrael"
FLAGS DCP
INDEX 01 03:00:42
TRACK 03 AUDIO
TITLE "They Live"
PERFORMER "Azrael"
FLAGS DCP
INDEX 01 09:07:12
TRACK 04 AUDIO
TITLE "Little Man In A Boat"
PERFORMER "Azrael"
FLAGS DCP
INDEX 01 14:26:48
TRACK 05 AUDIO
TITLE "Television Slave"
PERFORMER "Azrael"
FLAGS DCP
INDEX 01 17:31:20
TRACK 06 AUDIO
TITLE "Evolution's Mistake"
PERFORMER "Azrael"
FLAGS DCP
INDEX 01 25:46:68
TRACK 07 AUDIO
TITLE "Deadly Disease"
PERFORMER "Azrael"
FLAGS DCP
INDEX 01 29:57:46
TRACK 08 AUDIO
TITLE "Ignorance"
PERFORMER "Azrael"
FLAGS DCP
INDEX 01 32:02:63
TRACK 09 AUDIO
TITLE "Our New World"
PERFORMER "Azrael"
FLAGS DCP
INDEX 01 34:19:64
TRACK 10 AUDIO
TITLE "Chaos"
PERFORMER "Azrael"
FLAGS DCP
INDEX 01 38:42:52
TRACK 11 AUDIO
TITLE "Demons"
PERFORMER "Azrael"
FLAGS DCP
INDEX 01 42:45:32
TRACK 12 AUDIO
TITLE "A-Jam (Nottin')"
PERFORMER "Azrael"
FLAGS DCP
INDEX 00 45:48:46
INDEX 01 45:51:46
TRACK 13 AUDIO
TITLE "Under The Lights"
PERFORMER "Azrael"
FLAGS DCP
INDEX 01 47:03:71
TRACK 14 AUDIO
TITLE "Death From Above"
PERFORMER "Azrael"
FLAGS DCP
INDEX 01 49:24:39
TRACK 15 AUDIO
TITLE "D.F.O.S."
PERFORMER "Azrael"
FLAGS DCP
INDEX 01 52:18:53
TRACK 16 AUDIO
TITLE "Hellsex Mosh"
PERFORMER "Azrael"
FLAGS DCP
INDEX 01 56:24:12
TRACK 17 AUDIO
TITLE "Welcome"
PERFORMER "Azrael"
FLAGS DCP
INDEX 01 59:23:15
TRACK 18 AUDIO
TITLE "Social Distortion"
PERFORMER "Azrael"
FLAGS DCP
INDEX 01 62:01:38
TRACK 19 AUDIO
TITLE "Death Metal"
PERFORMER "Azrael"
FLAGS DCP
INDEX 01 66:33:63
TRACK 20 AUDIO
TITLE "Life Support"
PERFORMER "Azrael"
FLAGS DCP
INDEX 01 69:06:58

"Log"
Exact Audio Copy V0.99 prebeta 5 from 4. May 2009

Отчёт EAC об извлечении, выполненном 22. апреля 2015, 17:03

Azrael / Television Slave

Дисковод: MATSHITADVD-RAM UJ8A0AS Adapter: 0 ID: 1

Режим чтения : Достоверность
Использование точного потока : Да
Отключение кэша аудио : Да
Использование указателей C2 : Нет

Коррекция смещения при чтении : 102
Способность читать области Lead-in и Lead-out : Нет
Заполнение пропущенных сэмплов тишиной : Да
Удаление блоков с тишиной в начале и конце : Нет
При вычислениях CRC использовались нулевые сэмплы : Да
Интерфейс : Встроенный Win32-интерфейс для Win NT/2000

Выходной формат : Пользовательский кодировщик
Выбранный битрейт : 1024 kBit/s
Качество : Высокий
Добавление ID3-тэга : Нет
Утилита сжатия : C:\Program Files\Exact Audio Copy\FLAC\FLAC.EXE
Дополнительные параметры : -6 -V -T "ARTIST=%a" -T "TITLE=%t" -T "ALBUM=%g" -T "DATE=%y" -T "TRACKNUMBER=%n" -T "GENRE=%m" -T "COMMENT=%e" %s -o %d


TOC извлечённого CD

Трек | Старт | Длительность | Начальный сектор | Конечный сектор
---------------------------------------------------------------------
1 | 0:00.00 | 3:00.42 | 0 | 13541
2 | 3:00.42 | 6:06.45 | 13542 | 41036
3 | 9:07.12 | 5:19.36 | 41037 | 64997
4 | 14:26.48 | 3:04.47 | 64998 | 78844
5 | 17:31.20 | 8:15.48 | 78845 | 116017
6 | 25:46.68 | 4:10.53 | 116018 | 134820
7 | 29:57.46 | 2:05.17 | 134821 | 144212
8 | 32:02.63 | 2:17.01 | 144213 | 154488
9 | 34:19.64 | 4:22.63 | 154489 | 174201
10 | 38:42.52 | 4:02.55 | 174202 | 192406
11 | 42:45.32 | 3:06.14 | 192407 | 206370
12 | 45:51.46 | 1:12.25 | 206371 | 211795
13 | 47:03.71 | 2:20.43 | 211796 | 222338
14 | 49:24.39 | 2:54.14 | 222339 | 235402
15 | 52:18.53 | 4:05.34 | 235403 | 253811
16 | 56:24.12 | 2:59.03 | 253812 | 267239
17 | 59:23.15 | 2:38.23 | 267240 | 279112
18 | 62:01.38 | 4:32.25 | 279113 | 299537
19 | 66:33.63 | 2:32.70 | 299538 | 311007
20 | 69:06.58 | 1:37.00 | 311008 | 318282


Характеристики диапазона извлечения и сообщения об ошибках

Выбранный диапазон

Имя файла C:\Users\эксперт\Music\Azrael - Television Slave.wav

Пиковый уровень 100.0 %
Качество диапазона 99.9 %
CRC копии 19A5BC82
Копирование... OK

Ошибок не произошло


AccurateRip: сводка

Трек 1 нет в базе данных
Трек 2 нет в базе данных
Трек 3 нет в базе данных
Трек 4 нет в базе данных
Трек 5 нет в базе данных
Трек 6 нет в базе данных
Трек 7 нет в базе данных
Трек 8 нет в базе данных
Трек 9 нет в базе данных
Трек 10 нет в базе данных
Трек 11 нет в базе данных
Трек 12 нет в базе данных
Трек 13 нет в базе данных
Трек 14 нет в базе данных
Трек 15 нет в базе данных
Трек 16 нет в базе данных
Трек 17 нет в базе данных
Трек 18 нет в базе данных
Трек 19 нет в базе данных
Трек 20 нет в базе данных

Ни одного трека нет в базе AccurateRip

Конец отчёта


Television Slave


Top
 Profile  
 
 
PostPosted: 01 Feb 2016 
Прокъмитолист
User avatar
Joined: 12 Aug 2007
Posts: 6623
Lоcаtion: Санктъ-Петербуркъ
Age: 51
Name: Олекъ
:thanx:

_________________
прокъметол - это музыко, от которово есть прок (ы)


Top
 Profile  
 
 
PostPosted: 01 Feb 2016 
Хиппей (support team)
User avatar
Joined: 30 Jul 2007
Posts: 114839
Lоcаtion: Киев (Kyiv, UA)
Age: 46
Name: Andrey
:thanx:

mirror: iFolder l Narod l M-Cloud

_________________


Top
 Profile E-mail  
 
 
PostPosted: 01 Feb 2016 
Хиппей (support team)
User avatar
Joined: 30 Jul 2007
Posts: 114839
Lоcаtion: Киев (Kyiv, UA)
Age: 46
Name: Andrey
:shok: Ого... Оверкилль-2? :shok:

Начал только слушать альбом... :lob: :lob: :lob:

_________________


Top
 Profile E-mail  
 
 
PostPosted: 01 Feb 2016 
Хиппей (support team)
User avatar
Joined: 30 Jul 2007
Posts: 114839
Lоcаtion: Киев (Kyiv, UA)
Age: 46
Name: Andrey
Эх, какой же вокал охренительный пропал. Явно пропал...
Его бы в Metal Church бы в начале 00-х.


_________________


Top
 Profile E-mail  
 
 
PostPosted: 01 Feb 2016 
Хиппей (support team)
User avatar
Joined: 30 Jul 2007
Posts: 114839
Lоcаtion: Киев (Kyiv, UA)
Age: 46
Name: Andrey
Одного пока не пойму - зачем нужно было путать хронологию альбомов? :fingal:

_________________


Top
 Profile E-mail  
 
 
PostPosted: 01 Feb 2016 
Хиппей (support team)
User avatar
Joined: 30 Jul 2007
Posts: 114839
Lоcаtion: Киев (Kyiv, UA)
Age: 46
Name: Andrey
В общем, первый альбом. То есть второй здесь (88-й), похуже чуть оказался и записан и технически и музыкально. Но неплох.
Оба релиза заслуживают высоких оценок и похвалы в адрес как музыкантов, так и лэйбла, которых нашёл этот алмаз и сумел не испохабить звук, и Серёге, конечно, огромное спасибо за очередное знакомство с качественным павер-трэшэм :thanx: :lob: :lob: :lob:

7/10

_________________


Top
 Profile E-mail  
 
 
PostPosted: 01 Feb 2016 
Хиппей (support team)
User avatar
Joined: 30 Jul 2007
Posts: 114839
Lоcаtion: Киев (Kyiv, UA)
Age: 46
Name: Andrey
Да, забыл же главное сказать важное.
Если первый альбом (1988) был ещё каким-то привычным и мало на кого похожим (ну, никого не клонировал почти), то второй это уже точно клон альбома группы Metal Church от 1991 года - "Человеческий фактор", так сказать :pardon:
Но очень приятный, качественный и конструктивный, развитой клон :meloman:

_________________


Top
 Profile E-mail  
 
 
PostPosted: 03 Feb 2016 
Генеральный thrasher
User avatar
Joined: 03 Oct 2008
Posts: 3738
Lоcаtion: Ханты-Мансийский АО
Age: 44
Name: Сергей
В общем, первый альбом. То есть второй здесь (88-й), похуже чуть оказался и записан и технически и музыкально. Но неплох.
Оба релиза заслуживают высоких оценок и похвалы в адрес как музыкантов, так и лэйбла, которых нашёл этот алмаз и сумел не испохабить звук :thanx: :lob: :lob: :lob:

7/10


Спасибо за отзыв,Андрей!Согласен целиком...Бывает,что хорошие банды разваливаются,а средненькие и хреновенькие играют и играют,плодя бесчисленные альбомы-клоны.Особливо это касается сопливого пауэра!


Top
 Profile  
 
 
PostPosted: 03 Feb 2016 
Доктор энтомологии
User avatar
Joined: 22 Jan 2009
Posts: 9925
Lоcаtion: Даугавпилс
Age: 44
Name: Алексей
Спасибо Серега за альбомы и Андрюша спасибо за отзывы. Не знал о таких. Качаю. От души :thanx:


Top
 Profile  
 
 
PostPosted: 15 Apr 2016 
Персональный статус
Joined: 19 Jul 2010
Posts: 282
Lоcаtion: Москва
Name: Вадим
Спасибо! С удовольствием послушал.


Top
 Profile E-mail  
 
 
PostPosted: 16 Apr 2016 
консэрваторъ
User avatar
Joined: 11 Aug 2007
Posts: 17300
Lоcаtion: Псков
Age: 45
Name: Сергей
Scatterbrain wrote:
вокал охренительный

С сибилянтами на первом слоге каждой строчки... :pardon:

_________________
THRASH 'EM ALL


Top
 Profile E-mail  
 
 
PostPosted: 18 Apr 2016 
Old Time Rock`n`Roll
User avatar
Joined: 23 Jun 2008
Posts: 3490
Warnings: 1
Lоcаtion: г.Ульяновск
Age: 41
Name: Константин
:thanx: Название сомнительное, обложка трушная :true:


Top
 Profile  
 
Display posts from previous:  Sort by  
Post new topic Reply to topic  [ 13 posts ] 

All times are UTC + 3 hours


Who is online

Users browsing this forum: No registered users and 2 guests


You cannot post new topics in this forum
You cannot reply to topics in this forum
You cannot edit your posts in this forum
You cannot delete your posts in this forum
You cannot post attachments in this forum

Search for:
Яндекс.Метрика
Powered by phpBB © 2000, 2002, 2005, 2007 phpBB Group