\m/ 80's metal \m/

Информационно-аналитический форум "80 см пыли" (In Search We Trust) "У нас никто никуда не спешит"
Me For You - http://me-4u.com
It is currently 20 Oct 2019

All times are UTC + 3 hours

Spoiler
Chat - temporary registration for foreign users (please leave your application here)







Post new topic Reply to topic  [ 3 posts ] 
Author Message
 
PostPosted: 06 Dec 2015 
Работнечег
User avatar
Joined: 28 Aug 2007
Posts: 6035
Lоcаtion: г. Москва
Age: 30
Name: Дима
Image

Year: 2008
Label: Underground Records
Genre: Heavy Metal
Coutry: Czech Republic
Format: Flac + Log + Cue + Covers
Size: 161 Mb

Line-Up:
Martin Linhart - Drums (1987-1991, 2004-present)
David Votruba - Guitars (lead) (1987-present, 2004-present)
Marek Malášek - Bass (2008-present)(ex-Divá Bára)
Jan Hlavatý - Vocals (2008-present) (ex-DNA)


Tracklist:
1. Víc než král 04:52
2. Máš šanci 04:41
3. Nezahynu 05:44
4. Zlatej ráj 05:57

LOG
Exact Audio Copy V0.99 prebeta 5 from 4. May 2009

EAC extraction logfile from 5. December 2015, 14:26

Abax / Zlatej Raj EP

Used drive : PIONEER DVD-RW DVR-221 Adapter: 2 ID: 1

Read mode : Secure
Utilize accurate stream : Yes
Defeat audio cache : Yes
Make use of C2 pointers : No

Read offset correction : 6
Overread into Lead-In and Lead-Out : No
Fill up missing offset samples with silence : Yes
Delete leading and trailing silent blocks : No
Null samples used in CRC calculations : Yes
Used interface : Native Win32 interface for Win NT & 2000

Used output format : User Defined Encoder
Selected bitrate : 32 kBit/s
Quality : High
Add ID3 tag : No
Command line compressor : C:\Program Files\Exact Audio Copy\Flac\flac.exe
Additional command line options : -6 -V %s


TOC of the extracted CD

Track | Start | Length | Start sector | End sector
---------------------------------------------------------
1 | 0:00.00 | 4:54.33 | 0 | 22082
2 | 4:54.33 | 4:31.00 | 22083 | 42407
3 | 9:25.33 | 5:42.34 | 42408 | 68091
4 | 15:07.67 | 6:30.27 | 68092 | 97368


Range status and errors

Selected range

Filename D:\Музыка\Lossless\Abax - Zlatej Raj EP (2008)\Abax - Zlatej Raj EP.wav

Peak level 97.7 %
Range quality 100.0 %
Copy CRC FFB9082D
Copy OK

No errors occurred


AccurateRip summary

Track 1 not present in database
Track 2 not present in database
Track 3 not present in database
Track 4 not present in database

None of the tracks are present in the AccurateRip database

End of status report

CUE
REM GENRE "Speed/Thrash Metal"
REM DATE 2008
REM DISCID 37051204
REM COMMENT "ExactAudioCopy v0.99pb5"
PERFORMER "Abax"
TITLE "Zlatej Raj EP"
FILE "Abax - Zlatej Raj EP.flac" WAVE
TRACK 01 AUDIO
TITLE "Vic Nez Kral"
PERFORMER "Abax"
INDEX 01 00:00:00
TRACK 02 AUDIO
TITLE "Mas Sanci"
PERFORMER "Abax"
INDEX 00 04:52:33
INDEX 01 04:54:33
TRACK 03 AUDIO
TITLE "Nezahynu"
PERFORMER "Abax"
INDEX 00 09:23:33
INDEX 01 09:25:33
TRACK 04 AUDIO
TITLE "Zlatej Raj"
PERFORMER "Abax"
INDEX 00 15:05:67
INDEX 01 15:07:67


Yadi



Группа на самом деле старая (1987-1993, 2004-present) и это первый релиз после возвращения к активной деятельности! Если верить архивам раньше играли спид/трэш, но на этом альбоме скорее немного утяжеленный хэви, нашлось и место для баллады (Nezahynu). В целом, крепкий релиз на чешском языке.


Top
 Profile E-mail  
 
 
PostPosted: 06 Dec 2015 
Я набрал 1000 сообщений!
User avatar
Joined: 02 Feb 2009
Posts: 1000
Lоcаtion: из Тулы
Age: 45
Name: Максим
:true: :thanx:

_________________
КМА


Top
 Profile  
 
 
PostPosted: 07 Dec 2015 
ТрэшЭрос
User avatar
Joined: 18 Jul 2011
Posts: 2305
Lоcаtion: Гулькевичи
Age: 44
Name: Александр
Дима :thanx:




_________________
Thrash no trash!!!


Top
 Profile E-mail  
 
Display posts from previous:  Sort by  
Post new topic Reply to topic  [ 3 posts ] 

All times are UTC + 3 hours


Who is online

Users browsing this forum: No registered users and 3 guests


You cannot post new topics in this forum
You cannot reply to topics in this forum
You cannot edit your posts in this forum
You cannot delete your posts in this forum
You cannot post attachments in this forum

Search for:
Яндекс.Метрика
Powered by phpBB © 2000, 2002, 2005, 2007 phpBB Group