\m/ 80's metal \m/

Информационно-аналитический форум "80 см пыли" (In Search We Trust) "У нас никто никуда не спешит"
Me For You - http://me-4u.com
It is currently 17 Oct 2019

All times are UTC + 3 hours

Spoiler
Chat - temporary registration for foreign users (please leave your application here)







Post new topic Reply to topic  [ 25 posts ]  Go to page Previous  1, 2
Author Message
 
PostPosted: 06 Mar 2019 
Хиппей (support team)
User avatar
Joined: 30 Jul 2007
Posts: 114877
Lоcаtion: Киев (Kyiv, UA)
Age: 46
Name: Andrey
Scatterbrain wrote:
В составе не все шведы? =))


Нет, просто их не хватило на уровень "Defenders Of The Faith" ))

Ну они только в двух песнях пробовали слямзить что-то у Пристов =) А так вполне самобытная музыка.

_________________


Top
 Profile E-mail  
 
 
PostPosted: 06 Mar 2019 
Хиппей (support team)
User avatar
Joined: 30 Jul 2007
Posts: 114877
Lоcаtion: Киев (Kyiv, UA)
Age: 46
Name: Andrey
Scatterbrain wrote:
Вроде всё кк раз гармонично с чередованием скоростных и среднетемповых песен на альбоме у них

Не, среднего темпа многовато. Надоедает. И бодрые темы у них лучше получаются.

Соглашусь. Три песни вообще выпадают из альбома как раз по причине отсутствия вменяемых риффаков и скорости :(

_________________


Top
 Profile E-mail  
 
 
PostPosted: 06 Mar 2019 
Old Time Rock`n`Roll
User avatar
Joined: 23 Jun 2008
Posts: 3490
Warnings: 1
Lоcаtion: г.Ульяновск
Age: 41
Name: Константин
Ну вот и ответ, саунд тут ни причем)
Просто как композиторы так себе.


Top
 Profile  
 
 
PostPosted: 07 Mar 2019 
Хиппей (support team)
User avatar
Joined: 30 Jul 2007
Posts: 114877
Lоcаtion: Киев (Kyiv, UA)
Age: 46
Name: Andrey
Ну вот я оценку не зря выставил 7 из 10. Три песенки всего немногоооо выпадают. Или даже не так - не очень вписываются в концепт альбома.

Альбом хорош, но.. что-то в нём не так. Или кто-то.
Либо вокалист слишком типичный, либо звук плоский.

Узнаю скоро, отслушав релиз 15 года.

_________________


Top
 Profile E-mail  
 
 
PostPosted: 10 Mar 2019 
Хиппей (support team)
User avatar
Joined: 30 Jul 2007
Posts: 114877
Lоcаtion: Киев (Kyiv, UA)
Age: 46
Name: Andrey
Ambush - 2015 - Desecrator (Japanese Edition) [flac]

Image Image Image

mirror: Ur-Files l Uloz l Drop l Narod l M-Cloud

За несколько дней заценил и этот альбом и понял, что.. всё же группу мне пора оставить в покое.

Да, она хорошая, вкусная, играет правильную музыку и умело, но... не цепляет так, как иные коллективы. И это и есть главная причина.
На втором альбоме ребята повзрослели, вокалист стал петь ещё более уверенно и открыто. Музыканты играть боле технично и ещё менее скоростно =)) Но всё равно хорошо. Минус небольшой - начали напоминать иногда Хэлловин 90-х.

Но вот то "хорошо", к сожалению, не дотягивать до "офигеть, как классно" :pardon:

7+/10

log
Exact Audio Copy V1.1 from 23. June 2015

EAC extraction logfile from 25. November 2015, 0:24

Ambush / Desecrator

Used drive : ATAPI iHAS122 W Adapter: 2 ID: 0

Read mode : Secure
Utilize accurate stream : Yes
Defeat audio cache : Yes
Make use of C2 pointers : No

Read offset correction : 48
Overread into Lead-In and Lead-Out : No
Fill up missing offset samples with silence : Yes
Delete leading and trailing silent blocks : No
Null samples used in CRC calculations : Yes
Used interface : Installed external ASPI interface

Used output format : User Defined Encoder
Selected bitrate : 1024 kBit/s
Quality : High
Add ID3 tag : No
Command line compressor : C:\Program Files\FLAC\flac.exe
Additional command line options : -V -8 -T "Date=%year%" -T "Genre=%genre%" -T"COMMENT=Ripped by Ilijan" -8 -V %source%


TOC of the extracted CD

Track | Start | Length | Start sector | End sector
---------------------------------------------------------
1 | 0:00.00 | 3:31.19 | 0 | 15843
2 | 3:31.19 | 3:40.01 | 15844 | 32344
3 | 7:11.20 | 4:07.40 | 32345 | 50909
4 | 11:18.60 | 5:16.17 | 50910 | 74626
5 | 16:35.02 | 3:23.71 | 74627 | 89922
6 | 19:58.73 | 3:28.12 | 89923 | 105534
7 | 23:27.10 | 5:31.68 | 105535 | 130427
8 | 28:59.03 | 3:42.50 | 130428 | 147127
9 | 32:41.53 | 7:10.10 | 147128 | 179387
10 | 39:51.63 | 3:53.35 | 179388 | 196897
11 | 43:45.23 | 4:15.38 | 196898 | 216060


Range status and errors

Selected range

Filename D:\ilко\Ambush - Desecrator.wav

Peak level 100.0 %
Extraction speed 3.8 X
Range quality 100.0 %
Test CRC 51F7F79A
Copy CRC 51F7F79A
Copy OK

No errors occurred


AccurateRip summary

Track 1 not present in database
Track 2 not present in database
Track 3 not present in database
Track 4 not present in database
Track 5 not present in database
Track 6 not present in database
Track 7 not present in database
Track 8 not present in database
Track 9 not present in database
Track 10 not present in database
Track 11 not present in database

None of the tracks are present in the AccurateRip database

End of status report

---- CUETools DB Plugin V2.1.6

[CTDB TOCID: 5BfjrzH.lkgxTgbZJe9UlI0yaC0-] disk not present in database
Submit result: 5BfjrzH.lkgxTgbZJe9UlI0yaC0- has been uploaded


==== Log checksum 48497BB65610CC7623300B79AD81D7D3B5302CAB010068CBA8238A07413448F6 ====

cue
REM GENRE "Heavy Metal"
REM DATE 2015
REM DISCID 8C0B400B
REM COMMENT "ExactAudioCopy v1.1"
PERFORMER "Ambush"
TITLE "Desecrator"
FILE "Ambush - Desecrator.flac" WAVE
TRACK 01 AUDIO
TITLE "Possessed By Evil"
PERFORMER "Ambush"
INDEX 01 00:00:00
TRACK 02 AUDIO
TITLE "Night Of Defilers"
PERFORMER "Ambush"
INDEX 01 03:31:19
TRACK 03 AUDIO
TITLE "Desecrator"
PERFORMER "Ambush"
INDEX 01 07:11:20
TRACK 04 AUDIO
TITLE "The Chain Reaction"
PERFORMER "Ambush"
INDEX 01 11:18:60
TRACK 05 AUDIO
TITLE "Southstreet Brotherhood"
PERFORMER "Ambush"
INDEX 01 16:35:02
TRACK 06 AUDIO
TITLE "Rose Of The Dawn"
PERFORMER "Ambush"
INDEX 01 19:58:73
TRACK 07 AUDIO
TITLE "Master Of The Seas"
PERFORMER "Ambush"
INDEX 01 23:27:10
TRACK 08 AUDIO
TITLE "Faster"
PERFORMER "Ambush"
INDEX 01 28:59:03
TRACK 09 AUDIO
TITLE "The Seventh Seal"
PERFORMER "Ambush"
INDEX 01 32:41:53
TRACK 10 AUDIO
TITLE "Natural Born Killers (Single Version) (Bonus Track)"
PERFORMER "Ambush"
INDEX 00 39:49:63
INDEX 01 39:51:63
TRACK 11 AUDIO
TITLE "Heading East (Single Version) (Bonus Track)"
PERFORMER "Ambush"
INDEX 01 43:45:23


Image Image Image Image Image Image

Image Image Image Image Image Image

Image Image Image Image

_________________


Top
 Profile E-mail  
 
Display posts from previous:  Sort by  
Post new topic Reply to topic  [ 25 posts ]  Go to page Previous  1, 2

All times are UTC + 3 hours


Who is online

Users browsing this forum: No registered users and 2 guests


You cannot post new topics in this forum
You cannot reply to topics in this forum
You cannot edit your posts in this forum
You cannot delete your posts in this forum
You cannot post attachments in this forum

Search for:
Яндекс.Метрика
Powered by phpBB © 2000, 2002, 2005, 2007 phpBB Group