\m/ 80's metal \m/

Информационно-аналитический форум "80 см пыли" (In Search We Trust) "У нас никто никуда не спешит"
Me For You - http://me-4u.com
It is currently 20 Oct 2019

All times are UTC + 3 hours

Spoiler
Chat - temporary registration for foreign users (please leave your application here)







Post new topic Reply to topic  [ 12 posts ] 
Author Message
 
PostPosted: 30 Sep 2015 
Генеральный thrasher
User avatar
Joined: 03 Oct 2008
Posts: 3741
Lоcаtion: Ханты-Мансийский АО
Age: 44
Name: Сергей
Image

Year:2014
Style:Technical Thrash Metal
Country:U.S.A.
Archive:Flac+Cue+Log+Scans
Size:434Mb+347Mb
Source:my CD
Label:Divebomb Records
Catalog ID:DIVE067

CD 1:
Ambiguity (EP - 1994)
01. Dawn 02:43
02. Nescient Creation 03:39
03. The Truth Is? 05:24
04. Analysis Incomplete 04:31
05. Ambiguity 01:45
Destination Unknown (CD - 1990)
06. Recurrent Inception 06:06
07. Enshrouded Crypt 04:30
08. Infernal Domicile 04:30
09. Ancient Internecine 03:41
10. Life's Illusion 05:10
11. Impasse Of Humanity 04:55
12. Mirror Of Deception 4:16
13. Agamemnon 05:09

CD 2:
Arcane (Demo - 1989)
01. Recurrent Inception 06:40
02. Enshrouded Crypt 04:52
03. The Visionary 04:27
04. Ambiguity 00:24
05. Life's Illusion 05:39
06. Impasse Of Humanity 05:20
Mirror Of Deception (Demo - 1988)
07. Ancient Internecine 04:00
08. Infernal Domicile 05:00
09. Mirror Of Deception 04:50
10. Agamemnon 05:26

"Cue 1"
REM GENRE "Thrash Metal"
REM DATE 2014
REM DISCID C40D3B0D
REM COMMENT "ExactAudioCopy v0.99pb5"
PERFORMER "Arcane"
TITLE "Worlds Colliding CD 1"
FILE "Arcane - Worlds Colliding CD 1.flac" WAVE
TRACK 01 AUDIO
TITLE "Dawn"
PERFORMER "Arcane"
FLAGS DCP
INDEX 01 00:00:00
TRACK 02 AUDIO
TITLE "Nescient Creation"
PERFORMER "Arcane"
FLAGS DCP
INDEX 01 02:43:65
TRACK 03 AUDIO
TITLE "The Truth Is?"
PERFORMER "Arcane"
FLAGS DCP
INDEX 01 06:22:70
TRACK 04 AUDIO
TITLE "Analysis Incomplete"
PERFORMER "Arcane"
FLAGS DCP
INDEX 01 11:47:34
TRACK 05 AUDIO
TITLE "Ambiguity"
PERFORMER "Arcane"
FLAGS DCP
INDEX 01 16:18:70
TRACK 06 AUDIO
TITLE "Recurrent Inception"
PERFORMER "Arcane"
FLAGS DCP
INDEX 00 18:04:46
INDEX 01 18:06:46
TRACK 07 AUDIO
TITLE "Enshrouded Crypt"
PERFORMER "Arcane"
FLAGS DCP
INDEX 01 24:13:17
TRACK 08 AUDIO
TITLE "Infernal Domicile"
PERFORMER "Arcane"
FLAGS DCP
INDEX 01 28:43:64
TRACK 09 AUDIO
TITLE "Ancient Internecine"
PERFORMER "Arcane"
FLAGS DCP
INDEX 01 33:14:15
TRACK 10 AUDIO
TITLE "Life's Illusion"
PERFORMER "Arcane"
FLAGS DCP
INDEX 01 36:55:45
TRACK 11 AUDIO
TITLE "Impasse Of Humanity"
PERFORMER "Arcane"
FLAGS DCP
INDEX 01 42:05:65
TRACK 12 AUDIO
TITLE "Mirror Of Deception"
PERFORMER "Arcane"
FLAGS DCP
INDEX 01 47:01:37
TRACK 13 AUDIO
TITLE "Agamemnon"
PERFORMER "Arcane"
FLAGS DCP
INDEX 01 51:17:59

"Cue 2"
REM GENRE "Thrash Metal"
REM DATE 2014
REM DISCID 8D0AF60A
REM COMMENT "ExactAudioCopy v0.99pb5"
PERFORMER "Arcane"
TITLE "Worlds Colliding CD 2"
FILE "Arcane - Worlds Colliding CD 2.flac" WAVE
TRACK 01 AUDIO
TITLE "Recurrent Inception"
PERFORMER "Arcane"
FLAGS DCP
INDEX 01 00:00:00
TRACK 02 AUDIO
TITLE "Enshrouded Crypt"
PERFORMER "Arcane"
FLAGS DCP
INDEX 01 06:40:54
TRACK 03 AUDIO
TITLE "The Visionary"
PERFORMER "Arcane"
FLAGS DCP
INDEX 01 11:33:49
TRACK 04 AUDIO
TITLE "Ambiguity"
PERFORMER "Arcane"
FLAGS DCP
INDEX 01 16:01:20
TRACK 05 AUDIO
TITLE "Life's Illusion"
PERFORMER "Arcane"
FLAGS DCP
INDEX 01 16:26:13
TRACK 06 AUDIO
TITLE "Impasse Of Humanity"
PERFORMER "Arcane"
FLAGS DCP
INDEX 01 22:05:34
TRACK 07 AUDIO
TITLE "Ancient Internecine"
PERFORMER "Arcane"
FLAGS DCP
INDEX 00 27:26:33
INDEX 01 27:28:33
TRACK 08 AUDIO
TITLE "Infernal Domicile"
PERFORMER "Arcane"
FLAGS DCP
INDEX 01 31:28:59
TRACK 09 AUDIO
TITLE "Mirror Of Deception"
PERFORMER "Arcane"
FLAGS DCP
INDEX 01 36:28:69
TRACK 10 AUDIO
TITLE "Agamemnon "
PERFORMER "Arcane"
FLAGS DCP
INDEX 01 41:19:21

"Log"
Exact Audio Copy V0.99 prebeta 5 from 4. May 2009

Отчёт EAC об извлечении, выполненном 28. сентября 2015, 20:15

Arcane / Worlds Colliding CD 1

Дисковод: MATSHITADVD-RAM UJ8A0AS Adapter: 0 ID: 1

Режим чтения : Достоверность
Использование точного потока : Да
Отключение кэша аудио : Да
Использование указателей C2 : Нет

Коррекция смещения при чтении : 102
Способность читать области Lead-in и Lead-out : Нет
Заполнение пропущенных сэмплов тишиной : Да
Удаление блоков с тишиной в начале и конце : Нет
При вычислениях CRC использовались нулевые сэмплы : Да
Интерфейс : Встроенный Win32-интерфейс для Win NT/2000

Выходной формат : Пользовательский кодировщик
Выбранный битрейт : 1024 kBit/s
Качество : Высокий
Добавление ID3-тэга : Нет
Утилита сжатия : C:\Program Files\Exact Audio Copy\FLAC\FLAC.EXE
Дополнительные параметры : -6 -V -T "ARTIST=%a" -T "TITLE=%t" -T "ALBUM=%g" -T "DATE=%y" -T "TRACKNUMBER=%n" -T "GENRE=%m" -T "COMMENT=%e" %s -o %d


TOC извлечённого CD

Трек | Старт | Длительность | Начальный сектор | Конечный сектор
---------------------------------------------------------------------
1 | 0:00.00 | 2:43.65 | 0 | 12289
2 | 2:43.65 | 3:39.05 | 12290 | 28719
3 | 6:22.70 | 5:24.39 | 28720 | 53058
4 | 11:47.34 | 4:31.36 | 53059 | 73419
5 | 16:18.70 | 1:47.51 | 73420 | 81495
6 | 18:06.46 | 6:06.46 | 81496 | 108991
7 | 24:13.17 | 4:30.47 | 108992 | 129288
8 | 28:43.64 | 4:30.26 | 129289 | 149564
9 | 33:14.15 | 3:41.30 | 149565 | 166169
10 | 36:55.45 | 5:10.20 | 166170 | 189439
11 | 42:05.65 | 4:55.47 | 189440 | 211611
12 | 47:01.37 | 4:16.22 | 211612 | 230833
13 | 51:17.59 | 5:09.25 | 230834 | 254033


Характеристики диапазона извлечения и сообщения об ошибках

Выбранный диапазон

Имя файла C:\Users\эксперт\Music\Arcane - Worlds Colliding CD 1.wav

Пиковый уровень 100.0 %
Качество диапазона 100.0 %
CRC копии 6E1CDB07
Копирование... OK

Ошибок не произошло


AccurateRip: сводка

Трек 1 точность не определена (достоверность 1) [7364ED3A], AccurateRip вернул [81686C6F]
Трек 2 точность не определена (достоверность 1) [6673DD49], AccurateRip вернул [C8FD4981]
Трек 3 точность не определена (достоверность 1) [31B91592], AccurateRip вернул [CC2D14A4]
Трек 4 точность не определена (достоверность 1) [DEBC7F70], AccurateRip вернул [E31DFF97]
Трек 5 точность не определена (достоверность 1) [F66DA915], AccurateRip вернул [068C4DED]
Трек 6 точность не определена (достоверность 1) [4A904E46], AccurateRip вернул [25CC59C6]
Трек 7 точность не определена (достоверность 1) [13C5A9D8], AccurateRip вернул [6A3A5B0D]
Трек 8 точность не определена (достоверность 1) [A228A16F], AccurateRip вернул [2E9F5B88]
Трек 9 точность не определена (достоверность 1) [A26EB196], AccurateRip вернул [B0F15B36]
Трек 10 точность не определена (достоверность 1) [38AB76AB], AccurateRip вернул [D26BB8B6]
Трек 11 точность не определена (достоверность 1) [71BCEA03], AccurateRip вернул [7E6ADBE9]
Трек 12 точность не определена (достоверность 1) [71A20A9D], AccurateRip вернул [A12196D9]
Трек 13 точность не определена (достоверность 1) [E7722729], AccurateRip вернул [6AF515BB]

Ни один трек не прошёл проверки на точность
В вашей базе может быть иной вариант штамповки диска

Конец отчёта

"Log"
Exact Audio Copy V0.99 prebeta 5 from 4. May 2009

Отчёт EAC об извлечении, выполненном 28. сентября 2015, 17:04

Arcane / Worlds Colliding CD 2

Дисковод: MATSHITADVD-RAM UJ8A0AS Adapter: 0 ID: 1

Режим чтения : Достоверность
Использование точного потока : Да
Отключение кэша аудио : Да
Использование указателей C2 : Нет

Коррекция смещения при чтении : 102
Способность читать области Lead-in и Lead-out : Нет
Заполнение пропущенных сэмплов тишиной : Да
Удаление блоков с тишиной в начале и конце : Нет
При вычислениях CRC использовались нулевые сэмплы : Да
Интерфейс : Встроенный Win32-интерфейс для Win NT/2000

Выходной формат : Пользовательский кодировщик
Выбранный битрейт : 1024 kBit/s
Качество : Высокий
Добавление ID3-тэга : Нет
Утилита сжатия : C:\Program Files\Exact Audio Copy\FLAC\FLAC.EXE
Дополнительные параметры : -6 -V -T "ARTIST=%a" -T "TITLE=%t" -T "ALBUM=%g" -T "DATE=%y" -T "TRACKNUMBER=%n" -T "GENRE=%m" -T "COMMENT=%e" %s -o %d


TOC извлечённого CD

Трек | Старт | Длительность | Начальный сектор | Конечный сектор
---------------------------------------------------------------------
1 | 0:00.00 | 6:40.54 | 0 | 30053
2 | 6:40.54 | 4:52.70 | 30054 | 52023
3 | 11:33.49 | 4:27.46 | 52024 | 72094
4 | 16:01.20 | 0:24.68 | 72095 | 73962
5 | 16:26.13 | 5:39.21 | 73963 | 99408
6 | 22:05.34 | 5:22.74 | 99409 | 123632
7 | 27:28.33 | 4:00.26 | 123633 | 141658
8 | 31:28.59 | 5:00.10 | 141659 | 164168
9 | 36:28.69 | 4:50.27 | 164169 | 185945
10 | 41:19.21 | 5:26.59 | 185946 | 210454


Характеристики диапазона извлечения и сообщения об ошибках

Выбранный диапазон

Имя файла C:\Users\эксперт\Music\Arcane - Worlds Colliding CD 2.wav

Пиковый уровень 99.9 %
Качество диапазона 100.0 %
CRC копии 65B7600F
Копирование... OK

Ошибок не произошло


AccurateRip: сводка

Трек 1 нет в базе данных
Трек 2 нет в базе данных
Трек 3 нет в базе данных
Трек 4 нет в базе данных
Трек 5 нет в базе данных
Трек 6 нет в базе данных
Трек 7 нет в базе данных
Трек 8 нет в базе данных
Трек 9 нет в базе данных
Трек 10 нет в базе данных

Ни одного трека нет в базе AccurateRip

Конец отчёта



CD 1

CD 2


Top
 Profile  
 
 
PostPosted: 30 Sep 2015 
Прокъмитолист
User avatar
Joined: 12 Aug 2007
Posts: 6627
Lоcаtion: Санктъ-Петербуркъ
Age: 52
Name: Олекъ
спасибо, Серёг! и компиляшечку в коллекцию заберу, пригодится :thanx:

_________________
прокъметол - это музыко, от которово есть прок (ы)


Top
 Profile  
 
 
PostPosted: 30 Sep 2015 
Рарник и трушник
User avatar
Joined: 25 Dec 2009
Posts: 8793
Lоcаtion: Москва
Age: 54
Name: Виталий
Ух, спасибо, Сергей!!! :thanx:


Top
 Profile  
 
 
PostPosted: 30 Sep 2015 
Дежурный по КУПу
User avatar
Joined: 17 Aug 2007
Posts: 5871
Age: 51
Name: Ге
:thanx:

_________________
http://jp-mania.ru/
http://jp-tourdates.ucoz.ru/


Top
 Profile  
 
 
PostPosted: 30 Sep 2015 
Генеральный thrasher
User avatar
Joined: 03 Oct 2008
Posts: 3741
Lоcаtion: Ханты-Мансийский АО
Age: 44
Name: Сергей
спасибо, Серёг! и компиляшечку в коллекцию заберу, пригодится :thanx:


Ну,Олег,у меня рипы и твоего миника и Димкиного полнометражника давно имеются.Но обойти вниманием данную компиляху не смог.Тем более из-за диска №2.


Top
 Profile  
 
 
PostPosted: 30 Sep 2015 
Прокъмитолист
User avatar
Joined: 12 Aug 2007
Posts: 6627
Lоcаtion: Санктъ-Петербуркъ
Age: 52
Name: Олекъ
thorbeorn wrote:
Тем более из-за диска №2

ага, демки - самое интересное здесь для меня :lob:

_________________
прокъметол - это музыко, от которово есть прок (ы)


Top
 Profile  
 
 
PostPosted: 06 Oct 2015 
Alive Again
User avatar
Joined: 17 Dec 2008
Posts: 4747
Lоcаtion: Курск Воронеж Оскол
Age: 45
Name: Дмитрий
:thanx:


Top
 Profile E-mail  
 
 
PostPosted: 10 Oct 2015 
А может смените мне статус?..
User avatar
Joined: 28 Jul 2008
Posts: 991
Lоcаtion: Украина---Днепропетровск
Age: 45
Name: Александр
:thanx: :true:

_________________
Музыка в которой я растворяюсь многих угнетает......


Top
 Profile  
 
 
PostPosted: 03 Feb 2018 
Работнечег
User avatar
Joined: 28 Aug 2007
Posts: 6035
Lоcаtion: г. Москва
Age: 30
Name: Дима
Спасибо большое! :thanx:


Top
 Profile E-mail  
 
 
PostPosted: 03 Feb 2018 
Персональный статус
User avatar
Joined: 10 Jun 2009
Posts: 389
Name: jose gomes
:thanx:


Top
 Profile E-mail  
 
 
PostPosted: 05 Feb 2018 
Хиппей (support team)
User avatar
Joined: 30 Jul 2007
Posts: 114953
Lоcаtion: Киев (Kyiv, UA)
Age: 46
Name: Andrey
:thanx:

mirrors:

CD1 - Depos l Drop l Narod l M-Cloud
CD2 - Depos l Drop l Narod l M-Cloud

_________________


Top
 Profile E-mail  
 
 
PostPosted: 14 Feb 2018 
Хиппей (support team)
User avatar
Joined: 30 Jul 2007
Posts: 114953
Lоcаtion: Киев (Kyiv, UA)
Age: 46
Name: Andrey
Весьма понравилась группа. Но не все песни с этого сборника, конечно же. Много слишком для меня заковыристы и сложны не в меру. Или просто непонятны.
А так да, очень колоритный ProgMetal на стыке Heavy-Thrash, но миную банальный павер :lob: :lob: :lob:

7/10

_________________


Top
 Profile E-mail  
 
Display posts from previous:  Sort by  
Post new topic Reply to topic  [ 12 posts ] 

All times are UTC + 3 hours


Who is online

Users browsing this forum: Google [Bot] and 3 guests


You cannot post new topics in this forum
You cannot reply to topics in this forum
You cannot edit your posts in this forum
You cannot delete your posts in this forum
You cannot post attachments in this forum

Search for:
Яндекс.Метрика
Powered by phpBB © 2000, 2002, 2005, 2007 phpBB Group