\m/ 80's metal \m/

Информационно-аналитический форум "80 см пыли" (In Search We Trust) "У нас никто никуда не спешит"
Me For You - http://me-4u.com
It is currently 17 Oct 2019

All times are UTC + 3 hours

Spoiler
Chat - temporary registration for foreign users (please leave your application here)







Post new topic Reply to topic  [ 7 posts ] 
Author Message
 
PostPosted: 25 Sep 2015 
Генеральный thrasher
User avatar
Joined: 03 Oct 2008
Posts: 3738
Lоcаtion: Ханты-Мансийский АО
Age: 44
Name: Сергей
Первый свой альбом No Limite da Força эти бразильские парни выпустили в 1987 году.Ну а второй вот в этом году вышел.

Image

Year:2015
Style:Speed/Thrash Metal
Country:Brazil
Archive:Flac+Cue+Log+Scans
Size:371Mb
Source:my CD
Label:Mutilation Records

Line-Up:
Pardal Chimello - bass
Diego Nogueira - vocals
Mauricio Amaral - guitars
Eduardo "Topperman" Scarellis - guitars
Evandro Jr. - drums

Tracklist:
01. Sementes Perdidas 04:18
02. Ócio 03:35
03. O Caos da Razão 03:48
04. No Poço do Obscuro 04:47
05. Dor Imortal 03:55
06. Mercador da Fé 05:12
07. Pesadelo Sul-Americano 04:55
08. Sonho Negro 04:48
09. Corporação do Terror 04:15
10. Canibal 06:07

"Cue"
REM GENRE "Speed/Thrash Metal"
REM DATE 2015
REM DISCID 830AB80A
REM COMMENT "ExactAudioCopy v0.99pb5"
PERFORMER "Anthares"
TITLE "O Caos da Razao"
FILE "Anthares - O Caos da Razao.flac" WAVE
TRACK 01 AUDIO
TITLE "Sementes Perdidas"
PERFORMER "Anthares"
FLAGS DCP
INDEX 01 00:00:00
TRACK 02 AUDIO
TITLE "Ocio"
PERFORMER "Anthares"
FLAGS DCP
INDEX 01 04:18:09
TRACK 03 AUDIO
TITLE "O Caos da Razao"
PERFORMER "Anthares"
FLAGS DCP
INDEX 01 07:54:06
TRACK 04 AUDIO
TITLE "No Poco do Obscuro"
PERFORMER "Anthares"
FLAGS DCP
INDEX 01 11:42:28
TRACK 05 AUDIO
TITLE "Dor Imortal"
PERFORMER "Anthares"
FLAGS DCP
INDEX 01 16:29:62
TRACK 06 AUDIO
TITLE "Mercador da Fe"
PERFORMER "Anthares"
FLAGS DCP
INDEX 01 20:25:21
TRACK 07 AUDIO
TITLE "Pesadelo Sul-Americano"
PERFORMER "Anthares"
FLAGS DCP
INDEX 01 25:37:35
TRACK 08 AUDIO
TITLE "Sonho Negro"
PERFORMER "Anthares"
FLAGS DCP
INDEX 01 30:32:51
TRACK 09 AUDIO
TITLE "Corporacao do Terror"
PERFORMER "Anthares"
FLAGS DCP
INDEX 01 35:21:41
TRACK 10 AUDIO
TITLE "Canibal"
PERFORMER "Anthares"
FLAGS DCP
INDEX 01 39:36:62

"Log"
Exact Audio Copy V0.99 prebeta 5 from 4. May 2009

Отчёт EAC об извлечении, выполненном 24. июня 2015, 13:09

Anthares / O Caos da Razao

Дисковод: MATSHITADVD-RAM UJ8A0AS Adapter: 0 ID: 1

Режим чтения : Достоверность
Использование точного потока : Да
Отключение кэша аудио : Да
Использование указателей C2 : Нет

Коррекция смещения при чтении : 102
Способность читать области Lead-in и Lead-out : Нет
Заполнение пропущенных сэмплов тишиной : Да
Удаление блоков с тишиной в начале и конце : Нет
При вычислениях CRC использовались нулевые сэмплы : Да
Интерфейс : Встроенный Win32-интерфейс для Win NT/2000

Выходной формат : Пользовательский кодировщик
Выбранный битрейт : 1024 kBit/s
Качество : Высокий
Добавление ID3-тэга : Нет
Утилита сжатия : C:\Program Files\Exact Audio Copy\FLAC\FLAC.EXE
Дополнительные параметры : -6 -V -T "ARTIST=%a" -T "TITLE=%t" -T "ALBUM=%g" -T "DATE=%y" -T "TRACKNUMBER=%n" -T "GENRE=%m" -T "COMMENT=%e" %s -o %d


TOC извлечённого CD

Трек | Старт | Длительность | Начальный сектор | Конечный сектор
---------------------------------------------------------------------
1 | 0:00.00 | 4:18.09 | 0 | 19358
2 | 4:18.09 | 3:35.72 | 19359 | 35555
3 | 7:54.06 | 3:48.22 | 35556 | 52677
4 | 11:42.28 | 4:47.34 | 52678 | 74236
5 | 16:29.62 | 3:55.34 | 74237 | 91895
6 | 20:25.21 | 5:12.14 | 91896 | 115309
7 | 25:37.35 | 4:55.16 | 115310 | 137450
8 | 30:32.51 | 4:48.65 | 137451 | 159115
9 | 35:21.41 | 4:15.21 | 159116 | 178261
10 | 39:36.62 | 6:07.30 | 178262 | 205816


Характеристики диапазона извлечения и сообщения об ошибках

Выбранный диапазон

Имя файла C:\Users\эксперт\Music\Anthares - O Caos da Razao.wav

Пиковый уровень 98.8 %
Качество диапазона 100.0 %
CRC копии 4A602D5A
Копирование... OK

Ошибок не произошло


AccurateRip: сводка

Трек 1 нет в базе данных
Трек 2 нет в базе данных
Трек 3 нет в базе данных
Трек 4 нет в базе данных
Трек 5 нет в базе данных
Трек 6 нет в базе данных
Трек 7 нет в базе данных
Трек 8 нет в базе данных
Трек 9 нет в базе данных
Трек 10 нет в базе данных

Ни одного трека нет в базе AccurateRip

Конец отчёта


O Caos da Razao


Top
 Profile  
 
 
PostPosted: 25 Sep 2015 
Хиппей (support team)
User avatar
Joined: 30 Jul 2007
Posts: 114883
Lоcаtion: Киев (Kyiv, UA)
Age: 46
Name: Andrey
:thanx:

mirror: iFolder l Narod l M-Cloud

_________________


Top
 Profile E-mail  
 
 
PostPosted: 25 Sep 2015 
Хиппей (support team)
User avatar
Joined: 30 Jul 2007
Posts: 114883
Lоcаtion: Киев (Kyiv, UA)
Age: 46
Name: Andrey
Ухо и глаз на обложке уже где-то видел... :lloo:
Начал слушать альбом. Пока вопли и испанский язык дико мешают сосредоточиться на скоростной музыке :fingal:

_________________


Top
 Profile E-mail  
 
 
PostPosted: 25 Sep 2015 
Генеральный thrasher
User avatar
Joined: 03 Oct 2008
Posts: 3738
Lоcаtion: Ханты-Мансийский АО
Age: 44
Name: Сергей
Чем тебя язык смущает,Андрюха? :vic:


Top
 Profile  
 
 
PostPosted: 25 Sep 2015 
Хиппей (support team)
User avatar
Joined: 30 Jul 2007
Posts: 114883
Lоcаtion: Киев (Kyiv, UA)
Age: 46
Name: Andrey
Да я его ненавижу жестока ещё со школы :fingal: Хуже только для меня венгерский, румынский или корейский.
Эти языки не созданы для пения. Хороши они в мэтал-музыке для таких стилей как хардкор и пограничных с ним к0ров.

Но альбом дослушиваю ща второй раз и дико прусь - обожаю такой вот спидо-трэш почти на максимальных оборотах и кучей бэков :lob: :lob: :lob:

зы. Первый трэк никому советский "Мастер" не напомнил? :crazy: Ощущение такое, что лирику на русском орут :true:

7+/10

_________________


Top
 Profile E-mail  
 
 
PostPosted: 25 Sep 2015 
Прокъмитолист
User avatar
Joined: 12 Aug 2007
Posts: 6623
Lоcаtion: Санктъ-Петербуркъ
Age: 51
Name: Олекъ
:thanx:

_________________
прокъметол - это музыко, от которово есть прок (ы)


Top
 Profile  
 
 
PostPosted: 26 Sep 2015 
Alive Again
User avatar
Joined: 17 Dec 2008
Posts: 4747
Lоcаtion: Курск Воронеж Оскол
Age: 45
Name: Дмитрий
:thanx:


Top
 Profile E-mail  
 
Display posts from previous:  Sort by  
Post new topic Reply to topic  [ 7 posts ] 

All times are UTC + 3 hours


Who is online

Users browsing this forum: No registered users and 2 guests


You cannot post new topics in this forum
You cannot reply to topics in this forum
You cannot edit your posts in this forum
You cannot delete your posts in this forum
You cannot post attachments in this forum

Search for:
Яндекс.Метрика
Powered by phpBB © 2000, 2002, 2005, 2007 phpBB Group