\m/ 80's metal \m/

Информационно-аналитический форум "80 см пыли" (In Search We Trust) "У нас никто никуда не спешит"
Me For You - http://me-4u.com
It is currently 16 Oct 2019

All times are UTC + 3 hours

Spoiler
Chat - temporary registration for foreign users (please leave your application here)







Post new topic Reply to topic  [ 6 posts ] 
Author Message
 
PostPosted: 17 Mar 2015 
Пионэръ
User avatar
Joined: 28 Mar 2013
Posts: 20
Lоcаtion: Fresno, California, USA
Age: 30
Name: /
Assassin - The Upcoming Terror 1986 (reissue 2006 MR029)

Image

Year: 2006
Style: Thrash Metal
Country: Germany
Audio: Flac+Cue+Log+Photos
Size: 1003,5МB
Source: Original CD Pressing
Label: Marquee Records


Line-Up:
Robert Gonnella - Vocals
Jürgen "Scholli" Scholz - Guitars
Dinko Vekić - Guitars
Markus "Lulle" Ludwig - Bass
Psycho Danger - Drums

Tracklist (Disc 1):
1. Into War 02:09
2. Forbidden Reality 03:28
3. Nemesis 03:51
4. Fight (To Stop the Tyranny) 02:29
5. The Last Man 06:55
6. Assassin 05:56
7. Holy Terror 04:57
8. Bullets 04:13
9. Speed of Light 02:52
10. The Damned/Fight (To Stop the Tyranny)
11. Holy Terror 05:32
12. Religion 03:05
13. Bullets 04:45
14. Assassin 06:03
15. Speed of Light 03:56
Track 1-9 "The Upcoming Terror" album 1987
Track 10-15 "Holy Terror" demo 1985


Tracklist (Disc 2):
1. Into War 01:52
2. Forbidden Reality 04:08
3. Holy Terror 05:29
4. Nemesis 04:06
5. Speed of Light 03:52
6. Into War 01:24
7. Forbidden Reality 03:06
8. Holy Terror 04:44
9. The Last Man 06:32
10. Fight (To Stop the Tyranny) 02:39
11. Assassin 05:26
12. Nemesis 03:45
13. Speed of Light 04:05
14. Bullets 05:36
15. Fight (To Stop the Tyranny) 02:53
Track 1-5 "The Saga of Nemesis" demo 1986
Track 6-15 Live, Kupferdächle, Pforzheim, May 23rd, 1987


"Cue (Disc 1)"
REM GENRE "Thrash Metal"
REM DATE 1987
REM DISCID BF0F380F
REM COMMENT "ExactAudioCopy v0.99pb5"
PERFORMER "ASSASSIN"
TITLE "The Upcoming Terror [CD1]"
FILE "ASSASSIN - The Upcoming Terror [CD1].flac" WAVE
TRACK 01 AUDIO
TITLE "Into War"
PERFORMER "ASSASSIN"
INDEX 01 00:00:00
TRACK 02 AUDIO
TITLE "Forbidden Reality"
PERFORMER "ASSASSIN"
INDEX 01 02:09:57
TRACK 03 AUDIO
TITLE "Nemesis"
PERFORMER "ASSASSIN"
INDEX 00 05:37:36
INDEX 01 05:39:36
TRACK 04 AUDIO
TITLE "Fight (To Stop The Tyranny)"
PERFORMER "ASSASSIN"
INDEX 00 09:32:64
INDEX 01 09:34:64
TRACK 05 AUDIO
TITLE "The Last Man"
PERFORMER "ASSASSIN"
INDEX 00 12:07:18
INDEX 01 12:09:18
TRACK 06 AUDIO
TITLE "Assassin"
PERFORMER "ASSASSIN"
INDEX 00 19:06:03
INDEX 01 19:08:03
TRACK 07 AUDIO
TITLE "Holy Terror"
PERFORMER "ASSASSIN"
INDEX 00 25:03:15
INDEX 01 25:05:15
TRACK 08 AUDIO
TITLE "Bullets"
PERFORMER "ASSASSIN"
INDEX 00 30:04:08
INDEX 01 30:06:08
TRACK 09 AUDIO
TITLE "Speed Of Light"
PERFORMER "ASSASSIN"
INDEX 00 34:21:40
INDEX 01 34:23:40
TRACK 10 AUDIO
TITLE "Tha Damned (Intro) / Fight (To Stop The Tyranny)"
PERFORMER "ASSASSIN"
INDEX 00 37:17:27
INDEX 01 37:19:27
TRACK 11 AUDIO
TITLE "Holy Terror"
PERFORMER "ASSASSIN"
INDEX 00 41:33:08
INDEX 01 41:35:08
TRACK 12 AUDIO
TITLE "Religion"
PERFORMER "ASSASSIN"
INDEX 00 47:04:46
INDEX 01 47:06:46
TRACK 13 AUDIO
TITLE "Bullets"
PERFORMER "ASSASSIN"
INDEX 00 50:09:45
INDEX 01 50:11:45
TRACK 14 AUDIO
TITLE "Assassin"
PERFORMER "ASSASSIN"
INDEX 00 54:54:71
INDEX 01 54:56:71
TRACK 15 AUDIO
TITLE "Speed Of Light"
PERFORMER "ASSASSIN"
INDEX 00 60:58:08
INDEX 01 61:00:08


"Cue (Disc 2)"
REM GENRE "Thrash Metal"
REM DATE 1987
REM DISCID C00DF60F
REM COMMENT "ExactAudioCopy v0.99pb5"
PERFORMER "ASSASSIN"
TITLE "The Upcoming Terror [CD2]"
FILE "ASSASSIN - The Upcoming Terror [CD2].flac" WAVE
TRACK 01 AUDIO
TITLE "Into War"
PERFORMER "ASSASSIN"
INDEX 01 00:00:00
TRACK 02 AUDIO
TITLE "Forbidden Reality"
PERFORMER "ASSASSIN"
INDEX 01 01:52:07
TRACK 03 AUDIO
TITLE "Holy Terror"
PERFORMER "ASSASSIN"
INDEX 00 05:57:61
INDEX 01 05:59:61
TRACK 04 AUDIO
TITLE "Nemesis"
PERFORMER "ASSASSIN"
INDEX 00 11:26:26
INDEX 01 11:28:26
TRACK 05 AUDIO
TITLE "Speed Of Light"
PERFORMER "ASSASSIN"
INDEX 00 15:32:08
INDEX 01 15:34:08
TRACK 06 AUDIO
TITLE "Into War"
PERFORMER "ASSASSIN"
INDEX 00 19:23:47
INDEX 01 19:25:47
TRACK 07 AUDIO
TITLE "Forbidden Reality"
PERFORMER "ASSASSIN"
INDEX 01 20:49:58
TRACK 08 AUDIO
TITLE "Holy Terror"
PERFORMER "ASSASSIN"
INDEX 01 23:56:05
TRACK 09 AUDIO
TITLE "The Last Man"
PERFORMER "ASSASSIN"
INDEX 01 28:40:09
TRACK 10 AUDIO
TITLE "Fight (To Stop The Tyranny)"
PERFORMER "ASSASSIN"
INDEX 01 35:12:08
TRACK 11 AUDIO
TITLE "Assassin"
PERFORMER "ASSASSIN"
INDEX 01 37:51:05
TRACK 12 AUDIO
TITLE "Nemesis"
PERFORMER "ASSASSIN"
INDEX 01 43:16:43
TRACK 13 AUDIO
TITLE "Speed Of Light"
PERFORMER "ASSASSIN"
INDEX 01 47:01:19
TRACK 14 AUDIO
TITLE "Bullets"
PERFORMER "ASSASSIN"
INDEX 01 51:06:17
TRACK 15 AUDIO
TITLE "Fight (To Stop The Tyranny)"
PERFORMER "ASSASSIN"
INDEX 01 56:42:33


"Log (Disc 1)"
Exact Audio Copy V0.99 prebeta 5 from 4. May 2009

EAC extraction logfile from 28. April 2013, 10:43

ASSASSIN / The Upcoming Terror [CD1]

Used drive : HL-DT-STDVDRAM GP30NB40 Adapter: 3 ID: 0

Read mode : Secure
Utilize accurate stream : Yes
Defeat audio cache : Yes
Make use of C2 pointers : No

Read offset correction : 6
Overread into Lead-In and Lead-Out : No
Fill up missing offset samples with silence : Yes
Delete leading and trailing silent blocks : No
Null samples used in CRC calculations : Yes
Used interface : Installed external ASPI interface

Used output format : User Defined Encoder
Selected bitrate : 1024 kBit/s
Quality : High
Add ID3 tag : No
Command line compressor : C:\Program Files\Exact Audio Copy\Flac\flac.exe
Additional command line options : -V -0 -T "artist=%a" -T "title=%t" -T "album=%g" -T "date=%y" -T "tracknumber=%n" -T "genre=%m" %s


TOC of the extracted CD

Track | Start | Length | Start sector | End sector
---------------------------------------------------------
1 | 0:00.00 | 2:09.57 | 0 | 9731
2 | 2:09.57 | 3:29.54 | 9732 | 25460
3 | 5:39.36 | 3:55.28 | 25461 | 43113
4 | 9:34.64 | 2:34.29 | 43114 | 54692
5 | 12:09.18 | 6:58.60 | 54693 | 86102
6 | 19:08.03 | 5:57.12 | 86103 | 112889
7 | 25:05.15 | 5:00.68 | 112890 | 135457
8 | 30:06.08 | 4:17.32 | 135458 | 154764
9 | 34:23.40 | 2:55.62 | 154765 | 167951
10 | 37:19.27 | 4:15.56 | 167952 | 187132
11 | 41:35.08 | 5:31.38 | 187133 | 211995
12 | 47:06.46 | 3:04.74 | 211996 | 225869
13 | 50:11.45 | 4:45.26 | 225870 | 247270
14 | 54:56.71 | 6:03.12 | 247271 | 274507
15 | 61:00.08 | 3:56.30 | 274508 | 292237


Range status and errors

Selected range

Filename C:\FLAC\ASSASSIN - The Upcoming Terror [CD1].wav

Peak level 99.9 %
Range quality 100.0 %
Test CRC 37B324DB
Copy CRC 37B324DB
Copy OK

No errors occurred


AccurateRip summary

Track 1 accurately ripped (confidence 4) [AAAE617A]
Track 2 accurately ripped (confidence 4) [2AFC8323]
Track 3 accurately ripped (confidence 4) [C94A3719]
Track 4 accurately ripped (confidence 4) [27FB4C26]
Track 5 accurately ripped (confidence 4) [72A8727C]
Track 6 accurately ripped (confidence 4) [905A2983]
Track 7 accurately ripped (confidence 4) [5B6B914E]
Track 8 accurately ripped (confidence 4) [7FD7AEC1]
Track 9 accurately ripped (confidence 4) [88D81E9F]
Track 10 accurately ripped (confidence 4) [A4D28A7B]
Track 11 accurately ripped (confidence 4) [38184F55]
Track 12 accurately ripped (confidence 4) [E9C1EBAE]
Track 13 accurately ripped (confidence 4) [DC6A53DA]
Track 14 accurately ripped (confidence 4) [486478AE]
Track 15 accurately ripped (confidence 4) [83EF3A43]

All tracks accurately ripped

End of status report


"Log (Disc 2)"
Exact Audio Copy V0.99 prebeta 5 from 4. May 2009

EAC extraction logfile from 28. April 2013, 11:19

ASSASSIN / The Upcoming Terror [CD2]

Used drive : HL-DT-STDVDRAM GP30NB40 Adapter: 3 ID: 0

Read mode : Secure
Utilize accurate stream : Yes
Defeat audio cache : Yes
Make use of C2 pointers : No

Read offset correction : 6
Overread into Lead-In and Lead-Out : No
Fill up missing offset samples with silence : Yes
Delete leading and trailing silent blocks : No
Null samples used in CRC calculations : Yes
Used interface : Installed external ASPI interface

Used output format : User Defined Encoder
Selected bitrate : 1024 kBit/s
Quality : High
Add ID3 tag : No
Command line compressor : C:\Program Files\Exact Audio Copy\Flac\flac.exe
Additional command line options : -V -0 -T "artist=%a" -T "title=%t" -T "album=%g" -T "date=%y" -T "tracknumber=%n" -T "genre=%m" %s


TOC of the extracted CD

Track | Start | Length | Start sector | End sector
---------------------------------------------------------
1 | 0:00.00 | 1:52.07 | 0 | 8406
2 | 1:52.07 | 4:07.54 | 8407 | 26985
3 | 5:59.61 | 5:28.40 | 26986 | 51625
4 | 11:28.26 | 4:05.57 | 51626 | 70057
5 | 15:34.08 | 3:51.39 | 70058 | 87421
6 | 19:25.47 | 1:24.11 | 87422 | 93732
7 | 20:49.58 | 3:06.22 | 93733 | 107704
8 | 23:56.05 | 4:44.04 | 107705 | 129008
9 | 28:40.09 | 6:31.74 | 129009 | 158407
10 | 35:12.08 | 2:38.72 | 158408 | 170329
11 | 37:51.05 | 5:25.38 | 170330 | 194742
12 | 43:16.43 | 3:44.51 | 194743 | 211593
13 | 47:01.19 | 4:04.73 | 211594 | 229966
14 | 51:06.17 | 5:36.16 | 229967 | 255182
15 | 56:42.33 | 2:52.41 | 255183 | 268123


Range status and errors

Selected range

Filename C:\FLAC\ASSASSIN - The Upcoming Terror [CD2].wav

Peak level 100.0 %
Range quality 99.9 %
Test CRC F0491F5E
Copy CRC F0491F5E
Copy OK

No errors occurred


AccurateRip summary

Track 1 accurately ripped (confidence 4) [9A6AA09C]
Track 2 accurately ripped (confidence 4) [BE2DAA69]
Track 3 accurately ripped (confidence 4) [3D4BBC64]
Track 4 accurately ripped (confidence 4) [31DA473B]
Track 5 accurately ripped (confidence 4) [A60BDACC]
Track 6 accurately ripped (confidence 4) [5C68F1B9]
Track 7 accurately ripped (confidence 4) [DD819B30]
Track 8 accurately ripped (confidence 4) [E46E77FD]
Track 9 accurately ripped (confidence 4) [4E063744]
Track 10 accurately ripped (confidence 4) [88FD0C0C]
Track 11 accurately ripped (confidence 4) [F24E44A3]
Track 12 accurately ripped (confidence 4) [E40F9F0B]
Track 13 accurately ripped (confidence 4) [072F40B1]
Track 14 accurately ripped (confidence 4) [459AFA86]
Track 15 accurately ripped (confidence 4) [CB02E8B1]

All tracks accurately ripped

End of status report


The Upcoming Terror


Top
 Profile E-mail  
 
 
PostPosted: 04 May 2015 
Работнечег
User avatar
Joined: 28 Aug 2007
Posts: 6028
Lоcаtion: г. Москва
Age: 30
Name: Дима
:thanx: :true:


Top
 Profile E-mail  
 
 
PostPosted: 08 May 2015 
ТрэшЭрос
User avatar
Joined: 18 Jul 2011
Posts: 2305
Lоcаtion: Гулькевичи
Age: 44
Name: Александр
GasmaskAvenger, :thanx:

_________________
Thrash no trash!!!


Top
 Profile E-mail  
 
 
PostPosted: 08 May 2015 
Partisanen - nicht kapitulieren!!
User avatar
Joined: 25 Dec 2011
Posts: 7150
Lоcаtion: партизанские леса
Age: 47
Name: Владимир
так то ж Армата!!! :lob:
Image

_________________
One more beer and Heavy Metal and I'm just fine!
старовер, куле... слово "блин" - до сих пор через Ъ говорю


Top
 Profile E-mail  
 
 
PostPosted: 08 May 2015 
Partisanen - nicht kapitulieren!!
User avatar
Joined: 25 Dec 2011
Posts: 7150
Lоcаtion: партизанские леса
Age: 47
Name: Владимир
mail.ru

_________________
One more beer and Heavy Metal and I'm just fine!
старовер, куле... слово "блин" - до сих пор через Ъ говорю


Top
 Profile E-mail  
 
 
PostPosted: 19 Nov 2016 
консэрваторъ
User avatar
Joined: 11 Aug 2007
Posts: 17299
Lоcаtion: Псков
Age: 45
Name: Сергей
Спасибо большое за релиз и за то что ссыли живы!..

_________________
THRASH 'EM ALL


Top
 Profile E-mail  
 
Display posts from previous:  Sort by  
Post new topic Reply to topic  [ 6 posts ] 

All times are UTC + 3 hours


Who is online

Users browsing this forum: No registered users and 3 guests


You cannot post new topics in this forum
You cannot reply to topics in this forum
You cannot edit your posts in this forum
You cannot delete your posts in this forum
You cannot post attachments in this forum

Search for:
Яндекс.Метрика
Powered by phpBB © 2000, 2002, 2005, 2007 phpBB Group