\m/ 80's metal \m/

Информационно-аналитический форум "80 см пыли" (In Search We Trust) "У нас никто никуда не спешит"
Me For You - http://me-4u.com
It is currently 20 Oct 2019

All times are UTC + 3 hours

Spoiler
Chat - temporary registration for foreign users (please leave your application here)







Post new topic Reply to topic  [ 13 posts ] 
Author Message
 
PostPosted: 04 Feb 2015 
Работнечег
User avatar
Joined: 28 Aug 2007
Posts: 6035
Lоcаtion: г. Москва
Age: 30
Name: Дима
Image
Year: 1996
Label: Independent
Genre: Heavy/Thrash Metal
Coutry: Germany
Format: Flac + Log + Cue + Covers
Size: 296 Mb

Line-Up:
Olle Becher - Bass (ex-Insomnia)
Thomas 'Bondo' Drechsel - Drums (ex-Gardens of Gehenna)
Henning 'Gig' Kölbl - Guitars
Andreas 'Crazy' Opel - Guitars (ex-Hellscape, ex-Gardens of Gehenna)
Alex Kössel - Vocals


Tracklist:
1. No More Gods 04:49
2. Gonepteryx Rhamni 03:24
3. Black Cross 04:56
4. My Own World 05:46
5. The Lattice Window 04:21
6. Time Of Eternity 04:19
7. Devestation 04:06
8. Burning Shame 05:19
9. Faith The Fear 02:48

LOG
Exact Audio Copy V0.99 prebeta 5 from 4. May 2009

EAC extraction logfile from 31. January 2015, 15:36

Anaconda / The Lattice Window

Used drive : PIONEER DVD-RW DVR-221 Adapter: 2 ID: 1

Read mode : Secure
Utilize accurate stream : Yes
Defeat audio cache : Yes
Make use of C2 pointers : No

Read offset correction : 6
Overread into Lead-In and Lead-Out : No
Fill up missing offset samples with silence : Yes
Delete leading and trailing silent blocks : No
Null samples used in CRC calculations : Yes
Used interface : Native Win32 interface for Win NT & 2000

Used output format : User Defined Encoder
Selected bitrate : 32 kBit/s
Quality : High
Add ID3 tag : No
Command line compressor : C:\Program Files\Exact Audio Copy\Flac\flac.exe
Additional command line options : -6 -V %s


TOC of the extracted CD

Track | Start | Length | Start sector | End sector
---------------------------------------------------------
1 | 0:00.30 | 4:48.50 | 30 | 21679
2 | 4:49.05 | 3:24.01 | 21680 | 36980
3 | 8:13.06 | 4:56.01 | 36981 | 59181
4 | 13:09.07 | 5:45.73 | 59182 | 85129
5 | 18:55.05 | 4:21.08 | 85130 | 104712
6 | 23:16.13 | 4:18.67 | 104713 | 124129
7 | 27:35.05 | 4:05.74 | 124130 | 142578
8 | 31:41.04 | 5:19.03 | 142579 | 166506
9 | 37:00.07 | 2:48.15 | 166507 | 179121


Range status and errors

Selected range

Filename D:\Музыка\Lossless\Anaconda - The Lattice Window (1996)\Anaconda - The Lattice Window.wav

Peak level 99.9 %
Range quality 100.0 %
Copy CRC F8389741
Copy OK

No errors occurred


AccurateRip summary

Track 1 not present in database
Track 2 not present in database
Track 3 not present in database
Track 4 not present in database
Track 5 not present in database
Track 6 not present in database
Track 7 not present in database
Track 8 not present in database
Track 9 not present in database

None of the tracks are present in the AccurateRip database

End of status report

CUE
REM GENRE "Thrash Metal"
REM DATE 1996
REM DISCID 7A095409
REM COMMENT "ExactAudioCopy v0.99pb5"
PERFORMER "Anaconda"
TITLE "The Lattice Window"
FILE "Anaconda - The Lattice Window.flac" WAVE
TRACK 01 AUDIO
TITLE "No More Gods"
PERFORMER "Anaconda"
INDEX 00 00:00:00
INDEX 01 00:00:30
TRACK 02 AUDIO
TITLE "Gonepteryx Rhamni"
PERFORMER "Anaconda"
INDEX 01 04:49:05
TRACK 03 AUDIO
TITLE "Black Cross"
PERFORMER "Anaconda"
INDEX 01 08:13:06
TRACK 04 AUDIO
TITLE "My Own World"
PERFORMER "Anaconda"
INDEX 01 13:09:07
TRACK 05 AUDIO
TITLE "The Lattice Window"
PERFORMER "Anaconda"
INDEX 01 18:55:05
TRACK 06 AUDIO
TITLE "Time Of Eternity"
PERFORMER "Anaconda"
INDEX 01 23:16:13
TRACK 07 AUDIO
TITLE "Devastation"
PERFORMER "Anaconda"
INDEX 01 27:35:05
TRACK 08 AUDIO
TITLE "Burning Shame"
PERFORMER "Anaconda"
INDEX 01 31:41:04
TRACK 09 AUDIO
TITLE "Face The Fear"
PERFORMER "Anaconda"
INDEX 01 37:00:07




FLAC


Last edited by church on 07 Mar 2015, edited 1 time in total.

Top
 Profile E-mail  
 
 
PostPosted: 04 Feb 2015 
Прокъмитолист
User avatar
Joined: 12 Aug 2007
Posts: 6627
Lоcаtion: Санктъ-Петербуркъ
Age: 52
Name: Олекъ
:thanx:

_________________
прокъметол - это музыко, от которово есть прок (ы)


Top
 Profile  
 
 
PostPosted: 05 Feb 2015 
ТрэшЭрос
User avatar
Joined: 18 Jul 2011
Posts: 2305
Lоcаtion: Гулькевичи
Age: 44
Name: Александр
:thanx: :true:

_________________
Thrash no trash!!!


Top
 Profile E-mail  
 
 
PostPosted: 05 Feb 2015 
А может смените мне статус?..
User avatar
Joined: 28 Jul 2008
Posts: 991
Lоcаtion: Украина---Днепропетровск
Age: 45
Name: Александр
:true: Thanks :smile:

_________________
Музыка в которой я растворяюсь многих угнетает......


Top
 Profile  
 
 
PostPosted: 02 Mar 2015 
Персональный статус
User avatar
Joined: 04 Mar 2012
Posts: 239
Lоcаtion: Саратов
Name: Василий
:thanx:


Top
 Profile E-mail  
 
 
PostPosted: 03 Mar 2015 
Генеральный thrasher
User avatar
Joined: 03 Oct 2008
Posts: 3741
Lоcаtion: Ханты-Мансийский АО
Age: 44
Name: Сергей
Весьма недурно.Жаль,что альбом только один!Пойду демки искать. :lob:


Top
 Profile  
 
 
PostPosted: 07 Mar 2015 
Работнечег
User avatar
Joined: 28 Aug 2007
Posts: 6035
Lоcаtion: г. Москва
Age: 30
Name: Дима
Anaconda - Moritat (Demo)(1994)

Image

Label: Independent
Format: Wav + Covers
Size: 340 Mb

Tracklist:
1. Flames of Distrust 06:24
2. The Deluge 06:36
3. Death of the Guardian Angels 04:46
4. Will-o-the-Wisps 04:46
5. Hypochondria 04:16
6. March of Hate 06:45

Moritat (1994) Wav

Спасибо за рип с кассеты Мареку! В целом неплохой материал, не фигня, но и запоминающихся песен нет. Хриплый вокал, по большей части средний ритм, вот как-то так, но раритет :crazy:


Top
 Profile E-mail  
 
 
PostPosted: 07 Mar 2015 
Генеральный thrasher
User avatar
Joined: 03 Oct 2008
Posts: 3741
Lоcаtion: Ханты-Мансийский АО
Age: 44
Name: Сергей
Во как!Когда ты прелагал демку,Дим,я не думал,что она у тебя лосёвая.Спасибо!


Top
 Profile  
 
 
PostPosted: 07 Mar 2015 
Работнечег
User avatar
Joined: 28 Aug 2007
Posts: 6035
Lоcаtion: г. Москва
Age: 30
Name: Дима
Во как!Когда ты прелагал демку,Дим,я не думал,что она у тебя лосёвая.Спасибо!

Она продавалась недорого, да и альбом вроде понравился в целом, так что решил рискнуть и купить))


Top
 Profile E-mail  
 
 
PostPosted: 08 Mar 2015 
А может смените мне статус?..
User avatar
Joined: 17 Jan 2008
Posts: 897
Lоcаtion: Пенза
Age: 42
Name: Денис
Для полноты картины,так сказать...Композиция "The Deluge"(в вав формате) с третьего демо коллектива(выложенного выше) перезаписанная для сборника ''Underground Overdose 1" вышедшего в феврале 1995 го года.

Image

https://cloud.mail.ru/public/a849698a6d97/Anaconda.rar


Top
 Profile  
 
 
PostPosted: 08 Mar 2015 
Работнечег
User avatar
Joined: 28 Aug 2007
Posts: 6035
Lоcаtion: г. Москва
Age: 30
Name: Дима
Пасибо, Денис! А первых двух демок у тебя нет?


Top
 Profile E-mail  
 
 
PostPosted: 08 Mar 2015 
А может смените мне статус?..
User avatar
Joined: 17 Jan 2008
Posts: 897
Lоcаtion: Пенза
Age: 42
Name: Денис
Пасибо, Денис! А первых двух демок у тебя нет?

Нету...Даже в мп3 не встречал...


Top
 Profile  
 
 
PostPosted: 01 May 2015 
ТрэшЭрос
User avatar
Joined: 18 Jul 2011
Posts: 2305
Lоcаtion: Гулькевичи
Age: 44
Name: Александр
:thanx: :true:

_________________
Thrash no trash!!!


Top
 Profile E-mail  
 
Display posts from previous:  Sort by  
Post new topic Reply to topic  [ 13 posts ] 

All times are UTC + 3 hours


Who is online

Users browsing this forum: No registered users and 2 guests


You cannot post new topics in this forum
You cannot reply to topics in this forum
You cannot edit your posts in this forum
You cannot delete your posts in this forum
You cannot post attachments in this forum

Search for:
Яндекс.Метрика
Powered by phpBB © 2000, 2002, 2005, 2007 phpBB Group