\m/ 80's metal \m/

Информационно-аналитический форум "80 см пыли" (In Search We Trust) "У нас никто никуда не спешит"
Me For You - http://me-4u.com
It is currently 19 Oct 2019

All times are UTC + 3 hours

Spoiler
Chat - temporary registration for foreign users (please leave your application here)







Post new topic Reply to topic  [ 8 posts ] 
Author Message
 
PostPosted: 07 Dec 2014 
Работнечег
User avatar
Joined: 28 Aug 2007
Posts: 6035
Lоcаtion: г. Москва
Age: 30
Name: Дима
Image

Year: 2010
Label: Pervade Productions
Genre: Speed Metal
Coutry: France
Format: Flac + Log + Cue + Covers / mp3@320 + Covers
Size: 476 Mb + 370 Mb

Line-Up:
Dog - Drums
Betov - Guitars
Phil - Vocals
B-y Queruel - Guitars
Klod - Bass, Keyboards


Tracklist:
CD 1:
1. Les enfants de l'ombre (re-recorded) 05:32
2. Marquis du mal (re-recorded) 04:34
3. Alésia (re-recorded) 05:49
4. La terreur (re-recorded) 03:59
5. Mémoire de l'éternel (re-recorded) 03:55
6. Le blason de la honte (re-recorded) 04:27
7. Tourmentes et passion (re-recorded) 07:41
8. L'honneur perdu 03:26
9. N'abandonne jamais 03:20
10. A&S 01:33
11. Les enfants de l'ombre (original version) 05:12
12. Marquis du mal (original version) 04:51
13. Alésia (original version) 05:57
14. La terreur (original version) 04:19
15. Mémoire de l'éternel (original version) 03:55
16. Le blason de la honte (original version) 04:23
17. Tourmentes et passion (original version) 06:28

CD 2:
1. King of Pain
2. Sacrifice in the Ice
3. Fortunetelling
4. Introduction
5. Déesse du crime
6. Caligula
7. L'Étranger
8. Éxécution
9. Le Fléau de Dieu

CD 1:
Tracks 1 to 7 are rerecorded versions in 2009 of the "La Terreur" record.
Tracks 8 to 10 are never released titles from 1986.
Tracks 11 to 17 are the original version from 1986 of the "La Terreur" album.

Track 10 ,"A&S", means "Aglaë et Sidonie". This is a Metal cover of a title sequence from a children TV show that used to be on air in the early 80's. ADX usually plays that song at the end of their concerts as an outro (refer to "Live Execution").

Bonus CD: contains the demo tape from 1990 for the "Weid Vision" album (track 1 to 3) and the first demo tape from 1984 for the "Execution" album (tracks 4 to 9)


LOG CD 1
Exact Audio Copy V0.99 prebeta 5 from 4. May 2009

EAC extraction logfile from 7. December 2014, 13:55

ADX / Terreurs CD 1

Used drive : PIONEER DVD-RW DVR-221 Adapter: 2 ID: 1

Read mode : Secure
Utilize accurate stream : Yes
Defeat audio cache : Yes
Make use of C2 pointers : No

Read offset correction : 6
Overread into Lead-In and Lead-Out : No
Fill up missing offset samples with silence : Yes
Delete leading and trailing silent blocks : No
Null samples used in CRC calculations : Yes
Used interface : Native Win32 interface for Win NT & 2000

Used output format : User Defined Encoder
Selected bitrate : 32 kBit/s
Quality : High
Add ID3 tag : No
Command line compressor : C:\Program Files\Exact Audio Copy\Flac\flac.exe
Additional command line options : -6 -V %s


TOC of the extracted CD

Track | Start | Length | Start sector | End sector
---------------------------------------------------------
1 | 0:00.00 | 5:34.05 | 0 | 25054
2 | 5:34.05 | 4:36.19 | 25055 | 45773
3 | 10:10.24 | 5:50.68 | 45774 | 72091
4 | 16:01.17 | 4:00.47 | 72092 | 90138
5 | 20:01.64 | 3:56.70 | 90139 | 107908
6 | 23:58.59 | 4:29.03 | 107909 | 128086
7 | 28:27.62 | 7:42.57 | 128087 | 162793
8 | 36:10.44 | 3:27.39 | 162794 | 178357
9 | 39:38.08 | 3:21.13 | 178358 | 193445
10 | 42:59.21 | 1:33.45 | 193446 | 200465
11 | 44:32.66 | 5:15.23 | 200466 | 224113
12 | 49:48.14 | 4:54.05 | 224114 | 246168
13 | 54:42.19 | 6:00.52 | 246169 | 273220
14 | 60:42.71 | 4:22.40 | 273221 | 292910
15 | 65:05.36 | 3:58.23 | 292911 | 310783
16 | 69:03.59 | 4:26.37 | 310784 | 330770
17 | 73:30.21 | 6:28.58 | 330771 | 359928


Range status and errors

Selected range

Filename D:\Музыка\Lossless\ADX - Terreurs (2010) (2 CD)\CD 1\ADX - Terreurs.wav

Peak level 100.0 %
Range quality 100.0 %
Copy CRC D6BB7A1F
Copy OK

No errors occurred


AccurateRip summary

Track 1 accurately ripped (confidence 1) [1D00A390]
Track 2 accurately ripped (confidence 1) [182E0A0C]
Track 3 accurately ripped (confidence 1) [2BA7CAC7]
Track 4 accurately ripped (confidence 1) [7C23972A]
Track 5 accurately ripped (confidence 1) [28816191]
Track 6 accurately ripped (confidence 1) [AD9AA8E3]
Track 7 accurately ripped (confidence 1) [EAB9ADAC]
Track 8 accurately ripped (confidence 1) [03999690]
Track 9 accurately ripped (confidence 1) [E3C61ED5]
Track 10 accurately ripped (confidence 1) [13A51521]
Track 11 accurately ripped (confidence 1) [D3EF1D95]
Track 12 accurately ripped (confidence 1) [A0000A60]
Track 13 accurately ripped (confidence 1) [B90C2F14]
Track 14 accurately ripped (confidence 1) [3A2AF33B]
Track 15 accurately ripped (confidence 1) [89BF5174]
Track 16 accurately ripped (confidence 1) [A4A9D421]
Track 17 accurately ripped (confidence 1) [65DCA610]

All tracks accurately ripped

End of status report

CUE 1
REM GENRE "Speed Metal"
REM DATE 2010
REM DISCID E712BF11
REM COMMENT "ExactAudioCopy v0.99pb5"
PERFORMER "ADX"
TITLE "Terreurs CD 1"
FILE "ADX - Terreurs.flac" WAVE
TRACK 01 AUDIO
TITLE "Les Enfants De l'Ombre (Re-recorded)"
PERFORMER "ADX"
FLAGS DCP
INDEX 01 00:00:00
TRACK 02 AUDIO
TITLE "Marquis Du Mal (Re-recorded)"
PERFORMER "ADX"
FLAGS DCP
INDEX 00 05:32:06
INDEX 01 05:34:05
TRACK 03 AUDIO
TITLE "Alesia (Re-recorded)"
PERFORMER "ADX"
FLAGS DCP
INDEX 00 10:08:24
INDEX 01 10:10:24
TRACK 04 AUDIO
TITLE "La Terreur (Re-recorded)"
PERFORMER "ADX"
FLAGS DCP
INDEX 00 15:59:17
INDEX 01 16:01:17
TRACK 05 AUDIO
TITLE "Memoire De l'Eternel (Re-recorded)"
PERFORMER "ADX"
FLAGS DCP
INDEX 00 19:59:64
INDEX 01 20:01:64
TRACK 06 AUDIO
TITLE "La Blason De La Honte (Re-recorded)"
PERFORMER "ADX"
FLAGS DCP
INDEX 00 23:56:59
INDEX 01 23:58:59
TRACK 07 AUDIO
TITLE "Tourmentes Et Passion (Re-recorded)"
PERFORMER "ADX"
FLAGS DCP
INDEX 00 28:25:62
INDEX 01 28:27:62
TRACK 08 AUDIO
TITLE "L'Honneur Perdu"
PERFORMER "ADX"
FLAGS DCP
INDEX 00 36:08:44
INDEX 01 36:10:44
TRACK 09 AUDIO
TITLE "N'Abandonne Pas"
PERFORMER "ADX"
FLAGS DCP
INDEX 00 39:36:08
INDEX 01 39:38:08
TRACK 10 AUDIO
TITLE " A&S"
PERFORMER "ADX"
FLAGS DCP
INDEX 00 42:58:21
INDEX 01 42:59:21
TRACK 11 AUDIO
TITLE "Les Enfants De L'ombre (Original version)"
PERFORMER "ADX"
FLAGS DCP
INDEX 00 44:31:66
INDEX 01 44:32:66
TRACK 12 AUDIO
TITLE "Marquis Du Mal (Original version)"
PERFORMER "ADX"
FLAGS DCP
INDEX 00 49:47:14
INDEX 01 49:48:14
TRACK 13 AUDIO
TITLE "Alesia (Original version)"
PERFORMER "ADX"
FLAGS DCP
INDEX 00 54:41:20
INDEX 01 54:42:19
TRACK 14 AUDIO
TITLE "La Terreur (Original version)"
PERFORMER "ADX"
FLAGS DCP
INDEX 00 60:41:71
INDEX 01 60:42:71
TRACK 15 AUDIO
TITLE "Memoire De L'eternel (Original version)"
PERFORMER "ADX"
FLAGS DCP
INDEX 00 65:04:36
INDEX 01 65:05:36
TRACK 16 AUDIO
TITLE "Le Blason De La Honte (Original version)"
PERFORMER "ADX"
FLAGS DCP
INDEX 00 69:02:59
INDEX 01 69:03:59
TRACK 17 AUDIO
TITLE "Tourmente Et Passion (Original version)"
PERFORMER "ADX"
FLAGS DCP
INDEX 00 73:29:21
INDEX 01 73:30:21


LOG CD 2
Exact Audio Copy V0.99 prebeta 5 from 4. May 2009

EAC extraction logfile from 7. December 2014, 14:12

ADX / Terreurs CD 2

Used drive : PIONEER DVD-RW DVR-221 Adapter: 2 ID: 1

Read mode : Secure
Utilize accurate stream : Yes
Defeat audio cache : Yes
Make use of C2 pointers : No

Read offset correction : 6
Overread into Lead-In and Lead-Out : No
Fill up missing offset samples with silence : Yes
Delete leading and trailing silent blocks : No
Null samples used in CRC calculations : Yes
Used interface : Native Win32 interface for Win NT & 2000

Used output format : User Defined Encoder
Selected bitrate : 32 kBit/s
Quality : High
Add ID3 tag : No
Command line compressor : C:\Program Files\Exact Audio Copy\Flac\flac.exe
Additional command line options : -6 -V %s


TOC of the extracted CD

Track | Start | Length | Start sector | End sector
---------------------------------------------------------
1 | 0:00.00 | 4:08.48 | 0 | 18647
2 | 4:08.48 | 3:55.05 | 18648 | 36277
3 | 8:03.53 | 3:46.68 | 36278 | 53295
4 | 11:50.46 | 1:45.19 | 53296 | 61189
5 | 13:35.65 | 5:07.49 | 61190 | 84263
6 | 18:43.39 | 5:20.34 | 84264 | 108297
7 | 24:03.73 | 5:29.72 | 108298 | 133044
8 | 29:33.70 | 4:54.36 | 133045 | 155130
9 | 34:28.31 | 7:05.65 | 155131 | 187070


Range status and errors

Selected range

Filename D:\Музыка\Lossless\ADX - Terreurs (2010) (2 CD)\CD 2\ADX - Terreurs CD 2.wav

Peak level 100.0 %
Range quality 100.0 %
Copy CRC F341B9F7
Copy OK

No errors occurred


AccurateRip summary

Track 1 cannot be verified as accurate (confidence 1) [3D5621D2], AccurateRip returned [392D64E0]
Track 2 accurately ripped (confidence 1) [3FC7324B]
Track 3 accurately ripped (confidence 1) [EC408E49]
Track 4 accurately ripped (confidence 1) [7DE469C9]
Track 5 accurately ripped (confidence 1) [17C6F485]
Track 6 accurately ripped (confidence 1) [1005C1DF]
Track 7 accurately ripped (confidence 1) [882053E6]
Track 8 cannot be verified as accurate (confidence 1) [2D52514C], AccurateRip returned [5EE0386E]
Track 9 cannot be verified as accurate (confidence 1) [DF2C5B37], AccurateRip returned [F21386A9]

6 track(s) accurately ripped
3 track(s) could not be verified as accurate

Some tracks could not be verified as accurate

End of status report

CUE 2
REM GENRE "Speed Metal"
REM DATE 2010
REM DISCID 6809BE09
REM COMMENT "ExactAudioCopy v0.99pb5"
PERFORMER "ADX"
TITLE "Terreurs CD 2"
FILE "ADX - Terreurs CD 2.flac" WAVE
TRACK 01 AUDIO
TITLE "King Of Pain (From Demo tape For the 'Weid Vision')"
PERFORMER "ADX"
FLAGS DCP
INDEX 01 00:00:00
TRACK 02 AUDIO
TITLE "Sacrifice In The Ice (From Demo tape For the 'Weid Vision')"
PERFORMER "ADX"
FLAGS DCP
INDEX 00 04:06:48
INDEX 01 04:08:48
TRACK 03 AUDIO
TITLE "Fortunetelling (From Demo tape For the 'Weid Vision')"
PERFORMER "ADX"
FLAGS DCP
INDEX 00 08:01:53
INDEX 01 08:03:53
TRACK 04 AUDIO
TITLE "Introduction (From Demo tape For the 'Execution')"
PERFORMER "ADX"
FLAGS DCP
INDEX 00 11:48:46
INDEX 01 11:50:46
TRACK 05 AUDIO
TITLE "Deesse Du Crime (From Demo tape For the 'Execution')"
PERFORMER "ADX"
FLAGS DCP
INDEX 00 13:33:65
INDEX 01 13:35:65
TRACK 06 AUDIO
TITLE "Caligula (From Demo tape For the 'Execution')"
PERFORMER "ADX"
FLAGS DCP
INDEX 00 18:41:39
INDEX 01 18:43:39
TRACK 07 AUDIO
TITLE "L'etranger (From Demo tape For the 'Execution')"
PERFORMER "ADX"
FLAGS DCP
INDEX 00 24:01:73
INDEX 01 24:03:73
TRACK 08 AUDIO
TITLE "Execution (From Demo tape For the 'Execution')"
PERFORMER "ADX"
FLAGS DCP
INDEX 00 29:31:70
INDEX 01 29:33:70
TRACK 09 AUDIO
TITLE "Le Fleau De Dieu (From Demo tape For the 'Execution')"
PERFORMER "ADX"
FLAGS DCP
INDEX 00 34:26:31
INDEX 01 34:28:31


Part 1
Part 2

Демки к Execution звучат хреново, лучше бы ливничков добавили с последних годов каких-нибудь..


Top
 Profile E-mail  
 
 
PostPosted: 07 Dec 2014 
Хиппей (support team)
User avatar
Joined: 30 Jul 2007
Posts: 114929
Lоcаtion: Киев (Kyiv, UA)
Age: 46
Name: Andrey
:thanx:

_________________


Top
 Profile E-mail  
 
 
PostPosted: 08 Dec 2014 
Прокъмитолист
User avatar
Joined: 12 Aug 2007
Posts: 6625
Lоcаtion: Санктъ-Петербуркъ
Age: 52
Name: Олекъ
утащу. спасибо, Дим! :thanx:

_________________
прокъметол - это музыко, от которово есть прок (ы)


Top
 Profile  
 
 
PostPosted: 08 Dec 2014 
Генеральный thrasher
User avatar
Joined: 03 Oct 2008
Posts: 3741
Lоcаtion: Ханты-Мансийский АО
Age: 44
Name: Сергей
Заберу.Спасибо,Дим!


Top
 Profile  
 
 
PostPosted: 08 Dec 2014 
спирт 100%
User avatar
Joined: 22 Sep 2008
Posts: 4474
Age: 48
Name: Саня
Спасибо! :thanx:


Top
 Profile  
 
 
PostPosted: 08 Dec 2014 
А может смените мне статус?..
User avatar
Joined: 24 Dec 2008
Posts: 648
Age: 45
Name: Дмитрий
Благодарю!


Top
 Profile  
 
 
PostPosted: 08 Dec 2014 
Power Metal Maniac
User avatar
Joined: 09 Aug 2008
Posts: 6915
Lоcаtion: Москва
Age: 41
Name: Егор
:thanx:

_________________
Long Live Metal!


Top
 Profile  
 
 
PostPosted: 11 Dec 2014 
ТрэшЭрос
User avatar
Joined: 18 Jul 2011
Posts: 2305
Lоcаtion: Гулькевичи
Age: 44
Name: Александр
church, :thanx: :true:

_________________
Thrash no trash!!!


Top
 Profile E-mail  
 
Display posts from previous:  Sort by  
Post new topic Reply to topic  [ 8 posts ] 

All times are UTC + 3 hours


Who is online

Users browsing this forum: No registered users and 1 guest


You cannot post new topics in this forum
You cannot reply to topics in this forum
You cannot edit your posts in this forum
You cannot delete your posts in this forum
You cannot post attachments in this forum

Search for:
Яндекс.Метрика
Powered by phpBB © 2000, 2002, 2005, 2007 phpBB Group