\m/ 80's metal \m/

Информационно-аналитический форум "80 см пыли" (In Search We Trust) "У нас никто никуда не спешит"
Me For You - http://me-4u.com
It is currently 20 Oct 2019

All times are UTC + 3 hours

Spoiler
Chat - temporary registration for foreign users (please leave your application here)







Post new topic Reply to topic  [ 25 posts ]  Go to page Previous  1, 2
Author Message
 
PostPosted: 11 Jan 2014 
5-speed satisfactor
User avatar
Joined: 16 Feb 2009
Posts: 3774
Lоcаtion: New York, USA
Age: 41
Name: Leonid
А мне нравится весь Armoured Angel. Меня с ним ознакомил мой Австралийский товарищ-металлист. Еще полный альбом с другим певцом тоже не плох.

_________________
Death rules! Metal to all who oppose!


Top
 Profile  
 
 
PostPosted: 11 Jan 2014 
Хиппей (support team)
User avatar
Joined: 30 Jul 2007
Posts: 114953
Lоcаtion: Киев (Kyiv, UA)
Age: 46
Name: Andrey
Armoured Angel - 2012 - Hymns Of Hate (Anthology 2CD) [flacs]

Image

mirror: Narod l M-Cloud

Да, приятная, бодрая музычка :meloman: На первом трэшевом альбоме. И то очень редко :pardon:

Image


log CD1
Exact Audio Copy V1.0 beta 3 from 29. August 2011

EAC extraction logfile from 16. August 2013, 16:11

Armoured Angel / Hymns of Hate (Disc 1)

Used drive : ATAPI BD E DH12E3SH Adapter: 0 ID: 1

Read mode : Secure
Utilize accurate stream : Yes
Defeat audio cache : Yes
Make use of C2 pointers : No

Read offset correction : 702
Overread into Lead-In and Lead-Out : No
Fill up missing offset samples with silence : Yes
Delete leading and trailing silent blocks : No
Null samples used in CRC calculations : Yes
Used interface : Native Win32 interface for Win NT & 2000
Gap handling : Appended to previous track

Used output format : User Defined Encoder
Selected bitrate : 768 kBit/s
Quality : High
Add ID3 tag : No
Command line compressor : C:\Program Files (x86)\Exact Audio Copy\FLAC\FLAC.EXE
Additional command line options : -6 -V -T "ARTIST=%artist%" -T "TITLE=%title%" -T "ALBUM=%albumtitle%" -T "DATE=%year%" -T "TRACKNUMBER=%tracknr%" -T "GENRE=%genre%" -T "COMMENT=%comment%" -T "BAND=%albuminterpret%" -T "ALBUMARTIST=%albuminterpret%" -T "COMPOSER=%composer%" %haslyrics%--tag-from-file=LYRICS="%lyricsfile%"%haslyrics% -T "DISCNUMBER=%cdnumber%" -T "TOTALDISCS=%totalcds%" -T "TOTALTRACKS=%numtracks%" %hascover%--picture="%coverfile%"%hascover% %source% -o %dest%


TOC of the extracted CD

Track | Start | Length | Start sector | End sector
---------------------------------------------------------
1 | 0:00.00 | 3:45.61 | 0 | 16935
2 | 3:45.61 | 4:34.10 | 16936 | 37495
3 | 8:19.71 | 3:18.29 | 37496 | 52374
4 | 11:38.25 | 3:39.66 | 52375 | 68865
5 | 15:18.16 | 3:26.25 | 68866 | 84340
6 | 18:44.41 | 3:55.19 | 84341 | 101984
7 | 22:39.60 | 4:12.60 | 101985 | 120944
8 | 26:52.45 | 3:46.19 | 120945 | 137913
9 | 30:38.64 | 3:13.40 | 137914 | 152428
10 | 33:52.29 | 3:02.28 | 152429 | 166106
11 | 39:26.57 | 7:49.40 | 177507 | 212721


Track 1

Filename C:\Users\Scott\Music\Reqs\Armoured Angel\Hymns of Hate\Disc 1\01 Hymn of Hate.wav

Pre-gap length 0:00:02.00

Peak level 98.8 %
Extraction speed 1.7 X
Track quality 100.0 %
Test CRC 44253015
Copy CRC 44253015
Track not present in AccurateRip database
Copy OK

Track 2

Filename C:\Users\Scott\Music\Reqs\Armoured Angel\Hymns of Hate\Disc 1\02 Beyond the Sacrament.wav

Pre-gap length 0:00:00.53

Peak level 98.8 %
Extraction speed 2.0 X
Track quality 100.0 %
Test CRC 1670CBC0
Copy CRC 1670CBC0
Track not present in AccurateRip database
Copy OK

Track 3

Filename C:\Users\Scott\Music\Reqs\Armoured Angel\Hymns of Hate\Disc 1\03 Stigmartyr.wav

Pre-gap length 0:00:00.53

Peak level 98.8 %
Extraction speed 2.1 X
Track quality 100.0 %
Test CRC 91A40740
Copy CRC 91A40740
Track not present in AccurateRip database
Copy OK

Track 4

Filename C:\Users\Scott\Music\Reqs\Armoured Angel\Hymns of Hate\Disc 1\04 Ordained in Darkness.wav

Pre-gap length 0:00:00.53

Peak level 98.8 %
Extraction speed 2.2 X
Track quality 100.0 %
Test CRC 3BE38E1F
Copy CRC 3BE38E1F
Track not present in AccurateRip database
Copy OK

Track 5

Filename C:\Users\Scott\Music\Reqs\Armoured Angel\Hymns of Hate\Disc 1\05 Myth of Creation.wav

Pre-gap length 0:00:02.30

Peak level 98.8 %
Extraction speed 2.3 X
Track quality 100.0 %
Test CRC 41CCD393
Copy CRC 41CCD393
Track not present in AccurateRip database
Copy OK

Track 6

Filename C:\Users\Scott\Music\Reqs\Armoured Angel\Hymns of Hate\Disc 1\06 Heir to Evil.wav

Pre-gap length 0:00:00.04

Peak level 98.8 %
Extraction speed 2.5 X
Track quality 100.0 %
Test CRC C4A181E4
Copy CRC C4A181E4
Track not present in AccurateRip database
Copy OK

Track 7

Filename C:\Users\Scott\Music\Reqs\Armoured Angel\Hymns of Hate\Disc 1\07 Enigmatize.wav

Pre-gap length 0:00:00.39

Peak level 98.8 %
Extraction speed 2.7 X
Track quality 100.0 %
Test CRC 16FD6B9E
Copy CRC 16FD6B9E
Track not present in AccurateRip database
Copy OK

Track 8

Filename C:\Users\Scott\Music\Reqs\Armoured Angel\Hymns of Hate\Disc 1\08 Carved in Sin.wav

Pre-gap length 0:00:00.30

Peak level 98.8 %
Extraction speed 2.8 X
Track quality 100.0 %
Test CRC AA55327A
Copy CRC AA55327A
Track not present in AccurateRip database
Copy OK

Track 9

Filename C:\Users\Scott\Music\Reqs\Armoured Angel\Hymns of Hate\Disc 1\09 Pray For Me.wav

Pre-gap length 0:00:00.67

Peak level 98.8 %
Extraction speed 2.1 X
Track quality 99.9 %
Test CRC 85B04BEF
Copy CRC 85B04BEF
Track not present in AccurateRip database
Copy OK

Track 10

Filename C:\Users\Scott\Music\Reqs\Armoured Angel\Hymns of Hate\Disc 1\10 Elegy.wav

Pre-gap length 0:00:00.31

Peak level 98.8 %
Extraction speed 2.9 X
Track quality 100.0 %
Test CRC E1EA5A20
Copy CRC E1EA5A20
Track not present in AccurateRip database
Copy OK


None of the tracks are present in the AccurateRip database

No errors occurred

End of status report

---- CUETools DB Plugin V2.1.3

[CTDB TOCID: yxVXhlVmnvcB8mRk9BWnRUdBrVI-] found, Submit result: already submitted
[6b7ee642] (2/2) Accurately ripped


==== Log checksum 9AF7477B896FDAAFA06C6408C0EDDFBBF8D0A8EE6C74B8B236FD568FCE83F231 ====

------------------------------------------------------------

Exact Audio Copy V1.0 beta 3 from 29. August 2011

EAC extraction logfile from 16. August 2013, 16:12

Armoured Angel / Hymns of Hate (Disc 1)

Used drive : ATAPI BD E DH12E3SH Adapter: 0 ID: 1

Read mode : Secure
Utilize accurate stream : Yes
Defeat audio cache : Yes
Make use of C2 pointers : No

Read offset correction : 702
Overread into Lead-In and Lead-Out : No
Fill up missing offset samples with silence : Yes
Delete leading and trailing silent blocks : No
Null samples used in CRC calculations : Yes
Used interface : Native Win32 interface for Win NT & 2000
Gap handling : Appended to previous track

Used output format : User Defined Encoder
Selected bitrate : 768 kBit/s
Quality : High
Add ID3 tag : No
Command line compressor : C:\Program Files (x86)\Exact Audio Copy\FLAC\FLAC.EXE
Additional command line options : -6 -V -T "ARTIST=%artist%" -T "TITLE=%title%" -T "ALBUM=%albumtitle%" -T "DATE=%year%" -T "TRACKNUMBER=%tracknr%" -T "GENRE=%genre%" -T "COMMENT=%comment%" -T "BAND=%albuminterpret%" -T "ALBUMARTIST=%albuminterpret%" -T "COMPOSER=%composer%" %haslyrics%--tag-from-file=LYRICS="%lyricsfile%"%haslyrics% -T "DISCNUMBER=%cdnumber%" -T "TOTALDISCS=%totalcds%" -T "TOTALTRACKS=%numtracks%" %hascover%--picture="%coverfile%"%hascover% %source% -o %dest%


TOC of the extracted CD

Track | Start | Length | Start sector | End sector
---------------------------------------------------------
1 | 0:00.00 | 3:45.61 | 0 | 16935
2 | 3:45.61 | 4:34.10 | 16936 | 37495
3 | 8:19.71 | 3:18.29 | 37496 | 52374
4 | 11:38.25 | 3:39.66 | 52375 | 68865
5 | 15:18.16 | 3:26.25 | 68866 | 84340
6 | 18:44.41 | 3:55.19 | 84341 | 101984
7 | 22:39.60 | 4:12.60 | 101985 | 120944
8 | 26:52.45 | 3:46.19 | 120945 | 137913
9 | 30:38.64 | 3:13.40 | 137914 | 152428
10 | 33:52.29 | 3:02.28 | 152429 | 166106
11 | 39:26.57 | 7:49.40 | 177507 | 212721


Track 1

Filename C:\Users\Scott\Music\Reqs\Armoured Angel\Hymns of Hate\Disc 1\01 Hymn of Hate.wav

Pre-gap length 0:00:02.00

Peak level 98.8 %
Extraction speed 1.7 X
Track quality 100.0 %
Test CRC 44253015
Copy CRC 44253015
Track not present in AccurateRip database
Copy OK

Track 2

Filename C:\Users\Scott\Music\Reqs\Armoured Angel\Hymns of Hate\Disc 1\02 Beyond the Sacrament.wav

Pre-gap length 0:00:00.53

Peak level 98.8 %
Extraction speed 2.0 X
Track quality 100.0 %
Test CRC 1670CBC0
Copy CRC 1670CBC0
Track not present in AccurateRip database
Copy OK

Track 3

Filename C:\Users\Scott\Music\Reqs\Armoured Angel\Hymns of Hate\Disc 1\03 Stigmartyr.wav

Pre-gap length 0:00:00.53

Peak level 98.8 %
Extraction speed 2.1 X
Track quality 100.0 %
Test CRC 91A40740
Copy CRC 91A40740
Track not present in AccurateRip database
Copy OK

Track 4

Filename C:\Users\Scott\Music\Reqs\Armoured Angel\Hymns of Hate\Disc 1\04 Ordained in Darkness.wav

Pre-gap length 0:00:00.53

Peak level 98.8 %
Extraction speed 2.2 X
Track quality 100.0 %
Test CRC 3BE38E1F
Copy CRC 3BE38E1F
Track not present in AccurateRip database
Copy OK

Track 5

Filename C:\Users\Scott\Music\Reqs\Armoured Angel\Hymns of Hate\Disc 1\05 Myth of Creation.wav

Pre-gap length 0:00:02.30

Peak level 98.8 %
Extraction speed 2.3 X
Track quality 100.0 %
Test CRC 41CCD393
Copy CRC 41CCD393
Track not present in AccurateRip database
Copy OK

Track 6

Filename C:\Users\Scott\Music\Reqs\Armoured Angel\Hymns of Hate\Disc 1\06 Heir to Evil.wav

Pre-gap length 0:00:00.04

Peak level 98.8 %
Extraction speed 2.5 X
Track quality 100.0 %
Test CRC C4A181E4
Copy CRC C4A181E4
Track not present in AccurateRip database
Copy OK

Track 7

Filename C:\Users\Scott\Music\Reqs\Armoured Angel\Hymns of Hate\Disc 1\07 Enigmatize.wav

Pre-gap length 0:00:00.39

Peak level 98.8 %
Extraction speed 2.7 X
Track quality 100.0 %
Test CRC 16FD6B9E
Copy CRC 16FD6B9E
Track not present in AccurateRip database
Copy OK

Track 8

Filename C:\Users\Scott\Music\Reqs\Armoured Angel\Hymns of Hate\Disc 1\08 Carved in Sin.wav

Pre-gap length 0:00:00.30

Peak level 98.8 %
Extraction speed 2.8 X
Track quality 100.0 %
Test CRC AA55327A
Copy CRC AA55327A
Track not present in AccurateRip database
Copy OK

Track 9

Filename C:\Users\Scott\Music\Reqs\Armoured Angel\Hymns of Hate\Disc 1\09 Pray For Me.wav

Pre-gap length 0:00:00.67

Peak level 98.8 %
Extraction speed 2.1 X
Track quality 99.9 %
Test CRC 85B04BEF
Copy CRC 85B04BEF
Track not present in AccurateRip database
Copy OK

Track 10

Filename C:\Users\Scott\Music\Reqs\Armoured Angel\Hymns of Hate\Disc 1\10 Elegy.wav

Pre-gap length 0:00:00.31

Peak level 98.8 %
Extraction speed 2.9 X
Track quality 100.0 %
Test CRC E1EA5A20
Copy CRC E1EA5A20
Track not present in AccurateRip database
Copy OK


None of the tracks are present in the AccurateRip database

No errors occurred

End of status report

---- CUETools DB Plugin V2.1.3

[CTDB TOCID: yxVXhlVmnvcB8mRk9BWnRUdBrVI-] found, Submit result: already submitted
[6b7ee642] (2/2) Accurately ripped


==== Log checksum DE094DD22700A35877F141C3FF71BA9087F1685EE57053AD38274696ECAF865A ====

cue CD1
REM DISCID 6F0B140B
REM COMMENT "ExactAudioCopy v1.0b3"
PERFORMER "Armoured Angel"
TITLE "Hymns of Hate (Disc 1)"
FILE "01 Hymn of Hate.wav" WAVE
TRACK 01 AUDIO
TITLE "Hymn of Hate"
PERFORMER "Armoured Angel"
FLAGS DCP
INDEX 01 00:00:00
TRACK 02 AUDIO
TITLE "Beyond the Sacrament"
PERFORMER "Armoured Angel"
FLAGS DCP
INDEX 00 03:45:08
FILE "02 Beyond the Sacrament.wav" WAVE
INDEX 01 00:00:00
TRACK 03 AUDIO
TITLE "Stigmartyr"
PERFORMER "Armoured Angel"
FLAGS DCP
INDEX 00 04:33:32
FILE "03 Stigmartyr.wav" WAVE
INDEX 01 00:00:00
TRACK 04 AUDIO
TITLE "Ordained in Darkness"
PERFORMER "Armoured Angel"
FLAGS DCP
INDEX 00 03:17:51
FILE "04 Ordained in Darkness.wav" WAVE
INDEX 01 00:00:00
TRACK 05 AUDIO
TITLE "Myth of Creation"
PERFORMER "Armoured Angel"
FLAGS DCP
INDEX 00 03:37:36
FILE "05 Myth of Creation.wav" WAVE
INDEX 01 00:00:00
TRACK 06 AUDIO
TITLE "Heir to Evil"
PERFORMER "Armoured Angel"
FLAGS DCP
INDEX 00 03:26:21
FILE "06 Heir to Evil.wav" WAVE
INDEX 01 00:00:00
TRACK 07 AUDIO
TITLE "Enigmatize"
PERFORMER "Armoured Angel"
FLAGS DCP
INDEX 00 03:54:55
FILE "07 Enigmatize.wav" WAVE
INDEX 01 00:00:00
TRACK 08 AUDIO
TITLE "Carved in Sin"
PERFORMER "Armoured Angel"
FLAGS DCP
INDEX 00 04:12:30
FILE "08 Carved in Sin.wav" WAVE
INDEX 01 00:00:00
TRACK 09 AUDIO
TITLE "Pray For Me"
PERFORMER "Armoured Angel"
FLAGS DCP
INDEX 00 03:45:27
FILE "09 Pray For Me.wav" WAVE
INDEX 01 00:00:00
TRACK 10 AUDIO
TITLE "Elegy"
PERFORMER "Armoured Angel"
FLAGS DCP
INDEX 00 03:13:09
FILE "10 Elegy.wav" WAVE
INDEX 01 00:00:00
TRACK 11 MODEx/2xxx
TITLE "Track11"
PERFORMER "Armoured Angel"
INDEX 00 03:02:28

CD2 log
Exact Audio Copy V1.0 beta 3 from 29. August 2011

EAC extraction logfile from 16. August 2013, 17:47

Armoured Angel / Hymns of Hate (Disc 2)

Used drive : ATAPI BD E DH12E3SH Adapter: 0 ID: 1

Read mode : Secure
Utilize accurate stream : Yes
Defeat audio cache : Yes
Make use of C2 pointers : No

Read offset correction : 702
Overread into Lead-In and Lead-Out : No
Fill up missing offset samples with silence : Yes
Delete leading and trailing silent blocks : No
Null samples used in CRC calculations : Yes
Used interface : Native Win32 interface for Win NT & 2000
Gap handling : Appended to previous track

Used output format : User Defined Encoder
Selected bitrate : 768 kBit/s
Quality : High
Add ID3 tag : No
Command line compressor : C:\Program Files (x86)\Exact Audio Copy\FLAC\FLAC.EXE
Additional command line options : -6 -V -T "ARTIST=%artist%" -T "TITLE=%title%" -T "ALBUM=%albumtitle%" -T "DATE=%year%" -T "TRACKNUMBER=%tracknr%" -T "GENRE=%genre%" -T "COMMENT=%comment%" -T "BAND=%albuminterpret%" -T "ALBUMARTIST=%albuminterpret%" -T "COMPOSER=%composer%" %haslyrics%--tag-from-file=LYRICS="%lyricsfile%"%haslyrics% -T "DISCNUMBER=%cdnumber%" -T "TOTALDISCS=%totalcds%" -T "TOTALTRACKS=%numtracks%" %hascover%--picture="%coverfile%"%hascover% %source% -o %dest%


TOC of the extracted CD

Track | Start | Length | Start sector | End sector
---------------------------------------------------------
1 | 0:00.00 | 3:57.73 | 0 | 17847
2 | 3:57.73 | 4:08.45 | 17848 | 36492
3 | 8:06.43 | 4:49.57 | 36493 | 58224
4 | 12:56.25 | 3:31.07 | 58225 | 74056
5 | 16:27.32 | 4:16.26 | 74057 | 93282
6 | 20:43.58 | 3:48.11 | 93283 | 110393
7 | 24:31.69 | 5:20.20 | 110394 | 134413
8 | 29:52.14 | 3:18.21 | 134414 | 149284
9 | 33:10.35 | 5:34.08 | 149285 | 174342
10 | 38:44.43 | 2:00.24 | 174343 | 183366
11 | 40:44.67 | 3:48.73 | 183367 | 200539
12 | 44:33.65 | 3:26.47 | 200540 | 216036


Track 1

Filename C:\Users\Scott\Music\Reqs\Armoured Angel\Hymns of Hate\Disc 2\01 Armoured Angel.wav

Pre-gap length 0:00:02.00

Peak level 98.8 %
Extraction speed 1.7 X
Track quality 100.0 %
Test CRC 2D2D0C72
Copy CRC 2D2D0C72
Track not present in AccurateRip database
Copy OK

Track 2

Filename C:\Users\Scott\Music\Reqs\Armoured Angel\Hymns of Hate\Disc 2\02 Madame Guillotine.wav

Pre-gap length 0:00:00.11

Peak level 98.8 %
Extraction speed 2.0 X
Track quality 100.0 %
Test CRC DC66AD89
Copy CRC DC66AD89
Track not present in AccurateRip database
Copy OK

Track 3

Filename C:\Users\Scott\Music\Reqs\Armoured Angel\Hymns of Hate\Disc 2\03 Christian Slaughter.wav

Pre-gap length 0:00:01.27

Peak level 98.8 %
Extraction speed 2.2 X
Track quality 100.0 %
Test CRC 8F488887
Copy CRC 8F488887
Track not present in AccurateRip database
Copy OK

Track 4

Filename C:\Users\Scott\Music\Reqs\Armoured Angel\Hymns of Hate\Disc 2\04 Crush, Kill, Destroy.wav

Pre-gap length 0:00:01.31

Peak level 98.8 %
Extraction speed 2.3 X
Track quality 100.0 %
Test CRC C2730CE6
Copy CRC C2730CE6
Track not present in AccurateRip database
Copy OK

Track 5

Filename C:\Users\Scott\Music\Reqs\Armoured Angel\Hymns of Hate\Disc 2\05 Castration.wav

Pre-gap length 0:00:03.71

Peak level 98.8 %
Extraction speed 2.5 X
Track quality 100.0 %
Test CRC 3E23C4E5
Copy CRC 3E23C4E5
Track not present in AccurateRip database
Copy OK

Track 6

Filename C:\Users\Scott\Music\Reqs\Armoured Angel\Hymns of Hate\Disc 2\06 Tergiversator.wav

Pre-gap length 0:00:00.15

Peak level 98.8 %
Extraction speed 2.6 X
Track quality 100.0 %
Test CRC 739468FD
Copy CRC 739468FD
Track not present in AccurateRip database
Copy OK

Track 7

Filename C:\Users\Scott\Music\Reqs\Armoured Angel\Hymns of Hate\Disc 2\07 Communion.wav

Pre-gap length 0:00:01.13

Peak level 98.8 %
Extraction speed 2.8 X
Track quality 100.0 %
Test CRC 843C02A9
Copy CRC 843C02A9
Track not present in AccurateRip database
Copy OK

Track 8

Filename C:\Users\Scott\Music\Reqs\Armoured Angel\Hymns of Hate\Disc 2\08 My Fist, Your Face.wav

Pre-gap length 0:00:00.24

Peak level 98.8 %
Extraction speed 2.8 X
Track quality 100.0 %
Test CRC 228782E8
Copy CRC 228782E8
Track not present in AccurateRip database
Copy OK

Track 9

Filename C:\Users\Scott\Music\Reqs\Armoured Angel\Hymns of Hate\Disc 2\09 Thy Blood Eterne.wav

Pre-gap length 0:00:00.11

Peak level 98.8 %
Extraction speed 3.2 X
Track quality 100.0 %
Test CRC 7DAE3804
Copy CRC 7DAE3804
Track not present in AccurateRip database
Copy OK

Track 10

Filename C:\Users\Scott\Music\Reqs\Armoured Angel\Hymns of Hate\Disc 2\10 Gulka.wav

Pre-gap length 0:00:01.25

Peak level 98.8 %
Extraction speed 2.7 X
Track quality 100.0 %
Test CRC 54FC3006
Copy CRC 54FC3006
Track not present in AccurateRip database
Copy OK

Track 11

Filename C:\Users\Scott\Music\Reqs\Armoured Angel\Hymns of Hate\Disc 2\11 Way of Sorrows.wav

Pre-gap length 0:00:00.28

Peak level 98.8 %
Extraction speed 2.9 X
Track quality 100.0 %
Test CRC 1B9DAE76
Copy CRC 1B9DAE76
Track not present in AccurateRip database
Copy OK

Track 12

Filename C:\Users\Scott\Music\Reqs\Armoured Angel\Hymns of Hate\Disc 2\12 Oriax.wav

Pre-gap length 0:00:02.44

Peak level 98.8 %
Extraction speed 3.1 X
Track quality 100.0 %
Test CRC B21742CA
Copy CRC B21742CA
Track not present in AccurateRip database
Copy OK


None of the tracks are present in the AccurateRip database

No errors occurred

End of status report

---- CUETools DB Plugin V2.1.3

[CTDB TOCID: WxHSlDcYMidWcaTlghX5NjG9hnY-] found, Submit result: already submitted
[6d42a1c8] (2/2) Accurately ripped


==== Log checksum 86C36535946D678B43BD4FA1B10397CF06321D4EB3DB5EAFACBF3DBA78A9CBA6 ====

------------------------------------------------------------

Exact Audio Copy V1.0 beta 3 from 29. August 2011

EAC extraction logfile from 16. August 2013, 17:47

Armoured Angel / Hymns of Hate (Disc 2)

Used drive : ATAPI BD E DH12E3SH Adapter: 0 ID: 1

Read mode : Secure
Utilize accurate stream : Yes
Defeat audio cache : Yes
Make use of C2 pointers : No

Read offset correction : 702
Overread into Lead-In and Lead-Out : No
Fill up missing offset samples with silence : Yes
Delete leading and trailing silent blocks : No
Null samples used in CRC calculations : Yes
Used interface : Native Win32 interface for Win NT & 2000
Gap handling : Appended to previous track

Used output format : User Defined Encoder
Selected bitrate : 768 kBit/s
Quality : High
Add ID3 tag : No
Command line compressor : C:\Program Files (x86)\Exact Audio Copy\FLAC\FLAC.EXE
Additional command line options : -6 -V -T "ARTIST=%artist%" -T "TITLE=%title%" -T "ALBUM=%albumtitle%" -T "DATE=%year%" -T "TRACKNUMBER=%tracknr%" -T "GENRE=%genre%" -T "COMMENT=%comment%" -T "BAND=%albuminterpret%" -T "ALBUMARTIST=%albuminterpret%" -T "COMPOSER=%composer%" %haslyrics%--tag-from-file=LYRICS="%lyricsfile%"%haslyrics% -T "DISCNUMBER=%cdnumber%" -T "TOTALDISCS=%totalcds%" -T "TOTALTRACKS=%numtracks%" %hascover%--picture="%coverfile%"%hascover% %source% -o %dest%


TOC of the extracted CD

Track | Start | Length | Start sector | End sector
---------------------------------------------------------
1 | 0:00.00 | 3:57.73 | 0 | 17847
2 | 3:57.73 | 4:08.45 | 17848 | 36492
3 | 8:06.43 | 4:49.57 | 36493 | 58224
4 | 12:56.25 | 3:31.07 | 58225 | 74056
5 | 16:27.32 | 4:16.26 | 74057 | 93282
6 | 20:43.58 | 3:48.11 | 93283 | 110393
7 | 24:31.69 | 5:20.20 | 110394 | 134413
8 | 29:52.14 | 3:18.21 | 134414 | 149284
9 | 33:10.35 | 5:34.08 | 149285 | 174342
10 | 38:44.43 | 2:00.24 | 174343 | 183366
11 | 40:44.67 | 3:48.73 | 183367 | 200539
12 | 44:33.65 | 3:26.47 | 200540 | 216036


Track 1

Filename C:\Users\Scott\Music\Reqs\Armoured Angel\Hymns of Hate\Disc 2\01 Armoured Angel.wav

Pre-gap length 0:00:02.00

Peak level 98.8 %
Extraction speed 1.7 X
Track quality 100.0 %
Test CRC 2D2D0C72
Copy CRC 2D2D0C72
Track not present in AccurateRip database
Copy OK

Track 2

Filename C:\Users\Scott\Music\Reqs\Armoured Angel\Hymns of Hate\Disc 2\02 Madame Guillotine.wav

Pre-gap length 0:00:00.11

Peak level 98.8 %
Extraction speed 2.0 X
Track quality 100.0 %
Test CRC DC66AD89
Copy CRC DC66AD89
Track not present in AccurateRip database
Copy OK

Track 3

Filename C:\Users\Scott\Music\Reqs\Armoured Angel\Hymns of Hate\Disc 2\03 Christian Slaughter.wav

Pre-gap length 0:00:01.27

Peak level 98.8 %
Extraction speed 2.2 X
Track quality 100.0 %
Test CRC 8F488887
Copy CRC 8F488887
Track not present in AccurateRip database
Copy OK

Track 4

Filename C:\Users\Scott\Music\Reqs\Armoured Angel\Hymns of Hate\Disc 2\04 Crush, Kill, Destroy.wav

Pre-gap length 0:00:01.31

Peak level 98.8 %
Extraction speed 2.3 X
Track quality 100.0 %
Test CRC C2730CE6
Copy CRC C2730CE6
Track not present in AccurateRip database
Copy OK

Track 5

Filename C:\Users\Scott\Music\Reqs\Armoured Angel\Hymns of Hate\Disc 2\05 Castration.wav

Pre-gap length 0:00:03.71

Peak level 98.8 %
Extraction speed 2.5 X
Track quality 100.0 %
Test CRC 3E23C4E5
Copy CRC 3E23C4E5
Track not present in AccurateRip database
Copy OK

Track 6

Filename C:\Users\Scott\Music\Reqs\Armoured Angel\Hymns of Hate\Disc 2\06 Tergiversator.wav

Pre-gap length 0:00:00.15

Peak level 98.8 %
Extraction speed 2.6 X
Track quality 100.0 %
Test CRC 739468FD
Copy CRC 739468FD
Track not present in AccurateRip database
Copy OK

Track 7

Filename C:\Users\Scott\Music\Reqs\Armoured Angel\Hymns of Hate\Disc 2\07 Communion.wav

Pre-gap length 0:00:01.13

Peak level 98.8 %
Extraction speed 2.8 X
Track quality 100.0 %
Test CRC 843C02A9
Copy CRC 843C02A9
Track not present in AccurateRip database
Copy OK

Track 8

Filename C:\Users\Scott\Music\Reqs\Armoured Angel\Hymns of Hate\Disc 2\08 My Fist, Your Face.wav

Pre-gap length 0:00:00.24

Peak level 98.8 %
Extraction speed 2.8 X
Track quality 100.0 %
Test CRC 228782E8
Copy CRC 228782E8
Track not present in AccurateRip database
Copy OK

Track 9

Filename C:\Users\Scott\Music\Reqs\Armoured Angel\Hymns of Hate\Disc 2\09 Thy Blood Eterne.wav

Pre-gap length 0:00:00.11

Peak level 98.8 %
Extraction speed 3.2 X
Track quality 100.0 %
Test CRC 7DAE3804
Copy CRC 7DAE3804
Track not present in AccurateRip database
Copy OK

Track 10

Filename C:\Users\Scott\Music\Reqs\Armoured Angel\Hymns of Hate\Disc 2\10 Gulka.wav

Pre-gap length 0:00:01.25

Peak level 98.8 %
Extraction speed 2.7 X
Track quality 100.0 %
Test CRC 54FC3006
Copy CRC 54FC3006
Track not present in AccurateRip database
Copy OK

Track 11

Filename C:\Users\Scott\Music\Reqs\Armoured Angel\Hymns of Hate\Disc 2\11 Way of Sorrows.wav

Pre-gap length 0:00:00.28

Peak level 98.8 %
Extraction speed 2.9 X
Track quality 100.0 %
Test CRC 1B9DAE76
Copy CRC 1B9DAE76
Track not present in AccurateRip database
Copy OK

Track 12

Filename C:\Users\Scott\Music\Reqs\Armoured Angel\Hymns of Hate\Disc 2\12 Oriax.wav

Pre-gap length 0:00:02.44

Peak level 98.8 %
Extraction speed 3.1 X
Track quality 100.0 %
Test CRC B21742CA
Copy CRC B21742CA
Track not present in AccurateRip database
Copy OK


None of the tracks are present in the AccurateRip database

No errors occurred

End of status report

---- CUETools DB Plugin V2.1.3

[CTDB TOCID: WxHSlDcYMidWcaTlghX5NjG9hnY-] found, Submit result: already submitted
[6d42a1c8] (2/2) Accurately ripped


==== Log checksum 86C36535946D678B43BD4FA1B10397CF06321D4EB3DB5EAFACBF3DBA78A9CBA6 ====

CD2 cue
REM DISCID CA0B400C
REM COMMENT "ExactAudioCopy v1.0b3"
PERFORMER "Armoured Angel"
TITLE "Hymns of Hate (Disc 2)"
FILE "01 Armoured Angel.wav" WAVE
TRACK 01 AUDIO
TITLE "Armoured Angel"
PERFORMER "Armoured Angel"
FLAGS DCP
INDEX 01 00:00:00
TRACK 02 AUDIO
TITLE "Madame Guillotine"
PERFORMER "Armoured Angel"
FLAGS DCP
INDEX 00 03:57:62
FILE "02 Madame Guillotine.wav" WAVE
INDEX 01 00:00:00
TRACK 03 AUDIO
TITLE "Christian Slaughter"
PERFORMER "Armoured Angel"
FLAGS DCP
INDEX 00 04:07:18
FILE "03 Christian Slaughter.wav" WAVE
INDEX 01 00:00:00
TRACK 04 AUDIO
TITLE "Crush, Kill, Destroy"
PERFORMER "Armoured Angel"
FLAGS DCP
INDEX 00 04:48:26
FILE "04 Crush, Kill, Destroy.wav" WAVE
INDEX 01 00:00:00
TRACK 05 AUDIO
TITLE "Castration"
PERFORMER "Armoured Angel"
FLAGS DCP
INDEX 00 03:27:11
FILE "05 Castration.wav" WAVE
INDEX 01 00:00:00
TRACK 06 AUDIO
TITLE "Tergiversator"
PERFORMER "Armoured Angel"
FLAGS DCP
INDEX 00 04:16:11
FILE "06 Tergiversator.wav" WAVE
INDEX 01 00:00:00
TRACK 07 AUDIO
TITLE "Communion"
PERFORMER "Armoured Angel"
FLAGS DCP
INDEX 00 03:46:73
FILE "07 Communion.wav" WAVE
INDEX 01 00:00:00
TRACK 08 AUDIO
TITLE "My Fist, Your Face"
PERFORMER "Armoured Angel"
FLAGS DCP
INDEX 00 05:19:71
FILE "08 My Fist, Your Face.wav" WAVE
INDEX 01 00:00:00
TRACK 09 AUDIO
TITLE "Thy Blood Eterne"
PERFORMER "Armoured Angel"
FLAGS DCP
INDEX 00 03:18:10
FILE "09 Thy Blood Eterne.wav" WAVE
INDEX 01 00:00:00
TRACK 10 AUDIO
TITLE "Gulka"
PERFORMER "Armoured Angel"
FLAGS DCP
INDEX 00 05:32:58
FILE "10 Gulka.wav" WAVE
INDEX 01 00:00:00
TRACK 11 AUDIO
TITLE "Way of Sorrows"
PERFORMER "Armoured Angel"
FLAGS DCP
INDEX 00 01:59:71
FILE "11 Way of Sorrows.wav" WAVE
INDEX 01 00:00:00
TRACK 12 AUDIO
TITLE "Oriax"
PERFORMER "Armoured Angel"
FLAGS DCP
INDEX 00 03:46:29
FILE "12 Oriax.wav" WAVE
INDEX 01 00:00:00

_________________


Top
 Profile E-mail  
 
 
PostPosted: 20 Jan 2014 
Анатолий
User avatar
Joined: 18 Oct 2008
Posts: 3573
Lоcаtion: Армавир
Age: 42
Name: Анатолий
Спасибо большое! :thanx: :true: О существовании группы знал давно, ещё со времён Death City, по до послушать всё никак не доходили уши.


Top
 Profile E-mail  
 
 
PostPosted: 21 Jan 2014 
Дежурный по КУПу
User avatar
Joined: 17 Aug 2007
Posts: 5871
Age: 51
Name: Ге
:thanx:

_________________
http://jp-mania.ru/
http://jp-tourdates.ucoz.ru/


Top
 Profile  
 
 
PostPosted: 11 Feb 2014 
Хиппей (support team)
User avatar
Joined: 30 Jul 2007
Posts: 114953
Lоcаtion: Киев (Kyiv, UA)
Age: 46
Name: Andrey
Armoured Angel - 1992 - Stygmartyr (EP) [flac]

mirror: Narod l M-Cloud

Миник еще не слушал :pardon:

log
Exact Audio Copy V0.99 prebeta 5 from 4. May 2009

EAC extraction logfile from 15. December 2013, 22:30

Armoured Angel / Stigmartyr EP

Used drive : PIONEER DVD-RW DVR-116D Adapter: 0 ID: 0

Read mode : Secure
Utilize accurate stream : Yes
Defeat audio cache : Yes
Make use of C2 pointers : No

Read offset correction : 96
Overread into Lead-In and Lead-Out : No
Fill up missing offset samples with silence : Yes
Delete leading and trailing silent blocks : No
Null samples used in CRC calculations : Yes
Used interface : Native Win32 interface for Win NT & 2000

Used output format : User Defined Encoder
Selected bitrate : 32 kBit/s
Quality : High
Add ID3 tag : No
Command line compressor : C:\Program Files\Exact Audio Copy\Flac\flac.exe
Additional command line options : -6 -V %s


TOC of the extracted CD

Track | Start | Length | Start sector | End sector
---------------------------------------------------------
1 | 0:00.00 | 3:45.45 | 0 | 16919
2 | 3:45.45 | 4:34.17 | 16920 | 37486
3 | 8:19.62 | 3:19.38 | 37487 | 52449
4 | 11:39.25 | 3:37.72 | 52450 | 68796


Range status and errors

Selected range

Filename D:\Музыка\Lossless\Armoured Angel - Stygmartyr EP (1992)\Armoured Angel - Stigmartyr EP.wav

Peak level 100.0 %
Range quality 100.0 %
Copy CRC F330DB1F
Copy OK

No errors occurred


AccurateRip summary

Track 1 accurately ripped (confidence 1) [A036A8D1]
Track 2 accurately ripped (confidence 1) [A5625A30]
Track 3 accurately ripped (confidence 1) [84F4A2B9]
Track 4 accurately ripped (confidence 1) [8D4B6BD3]

All tracks accurately ripped

End of status report

cue
REM GENRE "Thrash Metal"
REM DATE 1992
REM DISCID 1B039504
REM COMMENT "ExactAudioCopy v0.99pb5"
PERFORMER "Armoured Angel"
TITLE "Stigmartyr EP"
FILE "Armoured Angel - Stigmartyr EP.flac" WAVE
TRACK 01 AUDIO
TITLE "Hymn Of Hate"
PERFORMER "Armoured Angel"
INDEX 01 00:00:00
TRACK 02 AUDIO
TITLE "Beyond The Sacrament"
PERFORMER "Armoured Angel"
INDEX 01 03:45:45
TRACK 03 AUDIO
TITLE "Stigmartyr"
PERFORMER "Armoured Angel"
INDEX 00 08:19:00
INDEX 01 08:19:62
TRACK 04 AUDIO
TITLE "Ordained In Darkness"
PERFORMER "Armoured Angel"
INDEX 00 11:37:15
INDEX 01 11:39:25

_________________


Top
 Profile E-mail  
 
Display posts from previous:  Sort by  
Post new topic Reply to topic  [ 25 posts ]  Go to page Previous  1, 2

All times are UTC + 3 hours


Who is online

Users browsing this forum: No registered users and 2 guests


You cannot post new topics in this forum
You cannot reply to topics in this forum
You cannot edit your posts in this forum
You cannot delete your posts in this forum
You cannot post attachments in this forum

Search for:
Яндекс.Метрика
Powered by phpBB © 2000, 2002, 2005, 2007 phpBB Group