\m/ 80's metal \m/

Информационно-аналитический форум "80 см пыли" (In Search We Trust) "У нас никто никуда не спешит"
Me For You - http://me-4u.com
It is currently 20 Oct 2019

All times are UTC + 3 hours

Spoiler
Chat - temporary registration for foreign users (please leave your application here)







Post new topic Reply to topic  [ 23 posts ]  Go to page Previous  1, 2
Author Message
 
PostPosted: 29 Nov 2013 
Работнечег
User avatar
Joined: 28 Aug 2007
Posts: 6035
Lоcаtion: г. Москва
Age: 30
Name: Дима
Image

Band: Art Of Fear
Album: Powertrip EP
Label: Self-released
Genre: Power/Thrash Metal
Country: Austria
Format: Flac + Log + Cue + Covers/ Mp3@320 kbps + Covers
Size: 161 Mb/ 51 Mb

Line-Up:
Thomas Metzler - Guitar, Vocals (Mortician)
Joe Künz - Drums
Johannes Leierer - Bass (Divine Temptation, Siegfried)
Daniel Khan - Vocals (Mortician)


Tracklist:
1. Powertrip 04:00
2. Expand Hell 04:16
3. Change 07:11
4. The Beast 04:27

LOG
Exact Audio Copy V0.99 prebeta 5 from 4. May 2009

EAC extraction logfile from 17. November 2013, 16:16

Art Of Fear / Powertrip EP

Used drive : PIONEER DVD-RW DVR-116D Adapter: 0 ID: 0

Read mode : Secure
Utilize accurate stream : Yes
Defeat audio cache : Yes
Make use of C2 pointers : No

Read offset correction : 96
Overread into Lead-In and Lead-Out : No
Fill up missing offset samples with silence : Yes
Delete leading and trailing silent blocks : No
Null samples used in CRC calculations : Yes
Used interface : Native Win32 interface for Win NT & 2000

Used output format : User Defined Encoder
Selected bitrate : 32 kBit/s
Quality : High
Add ID3 tag : No
Command line compressor : C:\Program Files\Exact Audio Copy\Flac\flac.exe
Additional command line options : -6 -V %s


TOC of the extracted CD

Track | Start | Length | Start sector | End sector
---------------------------------------------------------
1 | 0:00.00 | 4:00.27 | 0 | 18026
2 | 4:00.27 | 4:16.02 | 18027 | 37228
3 | 8:16.29 | 7:11.01 | 37229 | 69554
4 | 15:27.30 | 4:27.01 | 69555 | 89580


Range status and errors

Selected range

Filename D:\Музыка\Lossless\Art Of Fear - Powertrip EP (2009) Flac\Art Of Fear - Powertrip EP.wav

Peak level 99.7 %
Range quality 99.9 %
Copy CRC B4B06F3A
Copy OK

No errors occurred


AccurateRip summary

Track 1 not present in database
Track 2 not present in database
Track 3 not present in database
Track 4 not present in database

None of the tracks are present in the AccurateRip database

End of status report

CUE
REM GENRE "Power Metal"
REM DATE 2009
REM DISCID 3304AA04
REM COMMENT "ExactAudioCopy v0.99pb5"
PERFORMER "Art Of Fear"
TITLE "Powertrip EP"
FILE "Art Of Fear - Powertrip EP.flac" WAVE
TRACK 01 AUDIO
TITLE "Powertrip"
PERFORMER "Art Of Fear"
INDEX 01 00:00:00
TRACK 02 AUDIO
TITLE "Expand Hell"
PERFORMER "Art Of Fear"
INDEX 01 04:00:27
TRACK 03 AUDIO
TITLE "Change"
PERFORMER "Art Of Fear"
INDEX 01 08:16:29
TRACK 04 AUDIO
TITLE "The Beast"
PERFORMER "Art Of Fear"
INDEX 01 15:27:30


FLAC
Mp3@320

Пожалуй назвал бы этот миник по жесткости вторым после одноименного трэшевого альбома :true: Альбом выполнен в духе предыдущих работ, но мелодии стали больше трэшевыми. На этом и дискографию этой группы закрываем, все альбомы хороши, кроме слабенького Kill The Demon и есть на форуме)


Top
 Profile E-mail  
 
 
PostPosted: 04 Dec 2013 
Дежурный по КУПу
User avatar
Joined: 17 Aug 2007
Posts: 5871
Age: 51
Name: Ге
Scatterbrain wrote:
Ге, ты как там группу Fight обзываешь?

Ну не трэшем же, :shok: естественно это Pederastcorе :true: :crazy:
А если серьезно то по стилю (музыкальному) это тоже что и пантера.

_________________
http://jp-mania.ru/
http://jp-tourdates.ucoz.ru/


Top
 Profile  
 
 
PostPosted: 04 Dec 2013 
Хиппей (support team)
User avatar
Joined: 30 Jul 2007
Posts: 114953
Lоcаtion: Киев (Kyiv, UA)
Age: 46
Name: Andrey
German wrote:
это Pederastcorе

:crazy: :true:
German wrote:
А если серьезно то по стилю (музыкальному) это тоже что и пантера.

Ну да. Только не с таким привычным для того стиля (не будет снова упоминать название, чтобы снова не спорить :crazy: ) вокалом.

_________________


Top
 Profile E-mail  
 
 
PostPosted: 16 Jan 2014 
DarkSage
User avatar
Joined: 24 Sep 2009
Posts: 1082
Lоcаtion: Moscow
Name: Оксана
Спасибо релизёру :thanx: , с вашего позволения, сохраню сее и у себе ))

_________________
Image,Image


Top
 Profile E-mail  
 
Display posts from previous:  Sort by  
Post new topic Reply to topic  [ 23 posts ]  Go to page Previous  1, 2

All times are UTC + 3 hours


Who is online

Users browsing this forum: No registered users and 1 guest


You cannot post new topics in this forum
You cannot reply to topics in this forum
You cannot edit your posts in this forum
You cannot delete your posts in this forum
You cannot post attachments in this forum

Search for:
Яндекс.Метрика
Powered by phpBB © 2000, 2002, 2005, 2007 phpBB Group