\m/ 80's metal \m/

Информационно-аналитический форум "80 см пыли" (In Search We Trust) "У нас никто никуда не спешит"
Me For You - http://me-4u.com
It is currently 20 Oct 2019

All times are UTC + 3 hours

Spoiler
Chat - temporary registration for foreign users (please leave your application here)







Post new topic Reply to topic  [ 43 posts ]  Go to page Previous  1, 2, 3  Next
Author Message
 
PostPosted: 03 Sep 2013 
Трешер
User avatar
Joined: 25 Feb 2011
Posts: 1115
Lоcаtion: Харьков
Age: 43
Name: Aleksandr
Да я подожду одним куском :oops: чот не получается скачать то :dash:


Top
 Profile E-mail  
 
 
PostPosted: 03 Sep 2013 
Хиппей (support team)
User avatar
Joined: 30 Jul 2007
Posts: 114953
Lоcаtion: Киев (Kyiv, UA)
Age: 46
Name: Andrey
Хе-хе :crazy:

_________________


Top
 Profile E-mail  
 
 
PostPosted: 03 Sep 2013 
Хиппей (support team)
User avatar
Joined: 30 Jul 2007
Posts: 114953
Lоcаtion: Киев (Kyiv, UA)
Age: 46
Name: Andrey
Это был я!

Блин... Толя.
Ну и где... и как тебя после этого назвать? =)

Ок, спроси лучше у того большого чёрного человека сверху :au: А то я тебя боюсь :cry:

_________________


Top
 Profile E-mail  
 
 
PostPosted: 03 Sep 2013 
Анатолий
User avatar
Joined: 18 Oct 2008
Posts: 3573
Lоcаtion: Армавир
Age: 42
Name: Анатолий
Scatterbrain wrote:
Ну и где... и как тебя после этого назвать? =)


Я не обижусь за альтруиста. ;)


Top
 Profile E-mail  
 
 
PostPosted: 03 Sep 2013 
Хиппей (support team)
User avatar
Joined: 30 Jul 2007
Posts: 114953
Lоcаtion: Киев (Kyiv, UA)
Age: 46
Name: Andrey
Я рад, что ты умеешь выбирать нужные слова :kamrad:
Толь, а чем ты разрезал лося на части - Тотал Командером или 7-зипом? :oops:

_________________


Top
 Profile E-mail  
 
 
PostPosted: 03 Sep 2013 
Хиппей (support team)
User avatar
Joined: 30 Jul 2007
Posts: 114953
Lоcаtion: Киев (Kyiv, UA)
Age: 46
Name: Andrey
Axe Witch - 1985 - Hooked On High Heels [flac]

ImageImage
ImageImageImage


mirror: F-Bit l eDisk l Narod

log
Отчёт EAC об извлечении, выполненном 25. января 2009, 16:21 для диска:
Axe Witch / Hooked On High Heels

Дисковод: PLEXTOR DVDR PX-750A Adapter: 0 ID: 0
Режим чтения: Достоверный (C2: нет, Точный поток: да, Отключение кэша: да)
Коррекция смещения при чтении: 102
Способность читать области Lead-in и Lead-out : Нет

Выходной формат: Внутренние WAV-операции
44.100 Гц; 16 бит; стерео
Смещение при сжатии: 0

Другие параметры:
Заполнение пропущенных сэмплов тишиной : Да
Удаление блоков с тишиной в начале и конце : Нет
Встроенный Win32-интерфейс для Win NT/2000


Характеристики диапазона извлечения и сообщения об ошибках
Выбранный диапазон
Имя файла D:\Axe Witch - Hooked On High Heels.wav

Пропущены сэмплы
Пиковый уровень 0.0 %
Качество диапазона 100.0 %
CRC E20106AE
Копирование завершено

Были ошибки

Конец отчёта

------------------------------------------------------------

Отчёт EAC об извлечении, выполненном 25. января 2009, 16:49 для диска:
Axe Witch / Hooked On High Heels

Дисковод: PLEXTOR DVDR PX-750A Adapter: 0 ID: 0
Режим чтения: Достоверный (C2: нет, Точный поток: да, Отключение кэша: да)
Коррекция смещения при чтении: 102
Способность читать области Lead-in и Lead-out : Нет

Выходной формат: Внутренние WAV-операции
44.100 Гц; 16 бит; стерео
Смещение при сжатии: 0

Другие параметры:
Заполнение пропущенных сэмплов тишиной : Да
Удаление блоков с тишиной в начале и конце : Нет
Встроенный Win32-интерфейс для Win NT/2000


Характеристики диапазона извлечения и сообщения об ошибках
Выбранный диапазон
Имя файла D:\Axe Witch - Hooked On High Heels.wav

Пиковый уровень 100.0 %
Качество диапазона 100.0 %
CRC 11EB0CBB
Копирование... OK

Ошибок не произошло

Конец отчёта

cue
REM GENRE "Heavy Metal"
REM DATE 1985
REM DISCID 03125812
REM COMMENT "ExactAudioCopy v0.95b4"
PERFORMER "Axe Witch"
TITLE "Hooked On High Heels"
FILE "Axe Witch - Hooked On High Heels.flac" WAVE
TRACK 01 AUDIO
TITLE "City's On Fire"
PERFORMER "Axe Witch"
INDEX 01 00:00:00
TRACK 02 AUDIO
TITLE "Evolution"
PERFORMER "Axe Witch"
INDEX 00 05:10:10
INDEX 01 05:12:10
TRACK 03 AUDIO
TITLE "Too Much Hollywood"
PERFORMER "Axe Witch"
INDEX 00 09:02:14
INDEX 01 09:04:14
TRACK 04 AUDIO
TITLE "World Of Illusion"
PERFORMER "Axe Witch"
INDEX 00 14:07:24
INDEX 01 14:09:24
TRACK 05 AUDIO
TITLE "Nightcomers"
PERFORMER "Axe Witch"
INDEX 00 18:23:03
INDEX 01 18:25:03
TRACK 06 AUDIO
TITLE "Tracks Of Blood"
PERFORMER "Axe Witch"
INDEX 00 24:23:01
INDEX 01 24:25:01
TRACK 07 AUDIO
TITLE "Alpha And Omega"
PERFORMER "Axe Witch"
INDEX 00 29:48:29
INDEX 01 29:50:29
TRACK 08 AUDIO
TITLE "Shadows Through The Night"
PERFORMER "Axe Witch"
INDEX 00 31:58:58
INDEX 01 32:00:58
TRACK 09 AUDIO
TITLE "Backstage Queen"
PERFORMER "Axe Witch"
INDEX 00 36:01:27
INDEX 01 36:03:27
TRACK 10 AUDIO
TITLE "Leather And Passion"
PERFORMER "Axe Witch"
INDEX 00 41:08:56
INDEX 01 41:10:56
TRACK 11 AUDIO
TITLE "A Final Word (Demo 1985)"
PERFORMER "Axe Witch"
INDEX 00 45:10:55
INDEX 01 45:12:55
TRACK 12 AUDIO
TITLE "Get Out (Demo 1986)"
PERFORMER "Axe Witch"
INDEX 00 49:37:06
INDEX 01 49:39:06
TRACK 13 AUDIO
TITLE "Love can't Take it Away (Demo 1986)"
PERFORMER "Axe Witch"
INDEX 00 53:00:54
INDEX 01 53:02:54
TRACK 14 AUDIO
TITLE "Runaway (Demo 1986) "
PERFORMER "Axe Witch"
INDEX 00 57:12:67
INDEX 01 57:14:67
TRACK 15 AUDIO
TITLE "Deep Cuts the Knife (Demo 1986)"
PERFORMER "Axe Witch"
INDEX 00 61:27:41
INDEX 01 61:29:41
TRACK 16 AUDIO
TITLE "Young Girls in Love (Demo 1986)"
PERFORMER "Axe Witch"
INDEX 00 65:39:66
INDEX 01 65:41:66
TRACK 17 AUDIO
TITLE "Too Much Hollywood (Live 1986)"
PERFORMER "Axe Witch"
INDEX 00 68:46:31
INDEX 01 68:48:31
TRACK 18 AUDIO
TITLE "Seven Angels (Live 1991)"
PERFORMER "Axe Witch"
INDEX 00 73:53:22
INDEX 01 73:55:22

spectrum
Image

_________________


Top
 Profile E-mail  
 
 
PostPosted: 03 Sep 2013 
Анатолий
User avatar
Joined: 18 Oct 2008
Posts: 3573
Lоcаtion: Армавир
Age: 42
Name: Анатолий
Scatterbrain wrote:
Толь, а чем ты разрезал лося на части - Тотал Командером или 7-зипом?


Я уже забыл, что фолдырь имеет ограничения и залил одним файлом, а он мне и намекнул, что нужно разбить... сам фолдырь и разбил с помощью 7-зипом... больше туда лить не буду...


Top
 Profile E-mail  
 
 
PostPosted: 03 Sep 2013 
Хиппей (support team)
User avatar
Joined: 30 Jul 2007
Posts: 114953
Lоcаtion: Киев (Kyiv, UA)
Age: 46
Name: Andrey
Ого-го, чего-то я сам на объем лосей не глянул. На Фолдыре лимит до 400 метров, угу, если не ошибаюсь.
Но я не ожидал, что он, цуко, до сих пор еще сплиттером тем пользуется.
Ну ок то фигня. А как ты вот на такой вот адрес то вышел? :shok:

_________________


Top
 Profile E-mail  
 
 
PostPosted: 03 Sep 2013 
Анатолий
User avatar
Joined: 18 Oct 2008
Posts: 3573
Lоcаtion: Армавир
Age: 42
Name: Анатолий
Scatterbrain wrote:
А как ты вот на такой вот адрес то вышел?


Да никак. Просто зашёл на фолдырь и залил, потом он предложил разбить архив, я согласиля, поставив галочку, что я не против... возможно это какая-то нагрузка за пользованием ресурса.


Top
 Profile E-mail  
 
 
PostPosted: 04 Sep 2013 
Хиппей (support team)
User avatar
Joined: 30 Jul 2007
Posts: 114953
Lоcаtion: Киев (Kyiv, UA)
Age: 46
Name: Andrey
Не, Толик, такого быть не могёт.
Два варианта - или тебе эту ссылку http://into.rusfolder.net напаривает твой провайдер или кто-то из знакомых пошутил.

Ок, то уже мелкие мелочи, я тут слушаю альбом 85 года с твого рипа и офигеваю с бонусов. Это ж как нужно было растянуть кассетную ленту? :shok: Неужто на "Маяке" слушали? :nunu:
И вот ради этих вот таких бонусов вы за ними и охотитесь?
Тьху, да я лучше поищу это полное шоу в виде бутлега :dance:

_________________


Top
 Profile E-mail  
 
 
PostPosted: 04 Sep 2013 
Хиппей (support team)
User avatar
Joined: 30 Jul 2007
Posts: 114953
Lоcаtion: Киев (Kyiv, UA)
Age: 46
Name: Andrey
Axe Witch - 1984 - Visions Of The Past [flac]

ImageImage
ImageImage
ImageImageImage


mirror: F-Bit l eDisk l Narod

log
Отчёт EAC об извлечении, выполненном 25. января 2009, 16:08 для диска:
Axewitch / Visions Of The Past

Дисковод: PLEXTOR DVDR PX-750A Adapter: 0 ID: 0
Режим чтения: Достоверный (C2: нет, Точный поток: да, Отключение кэша: да)
Коррекция смещения при чтении: 102
Способность читать области Lead-in и Lead-out : Нет

Выходной формат: Внутренние WAV-операции
44.100 Гц; 16 бит; стерео
Смещение при сжатии: 0

Другие параметры:
Заполнение пропущенных сэмплов тишиной : Да
Удаление блоков с тишиной в начале и конце : Нет
Встроенный Win32-интерфейс для Win NT/2000


Характеристики диапазона извлечения и сообщения об ошибках
Выбранный диапазон
Имя файла D:\Axewitch - Visions Of The Past.wav

Пиковый уровень 100.0 %
Качество диапазона 100.0 %
CRC E20106AE
Копирование... OK

Ошибок не произошло

Конец отчёта

cue
REM GENRE "Heavy Metal"
REM DATE 1984
REM DISCID D912B111
REM COMMENT "ExactAudioCopy v0.95b4"
PERFORMER "Axewitch"
TITLE "Visions Of The Past"
FILE "Axewitch - Visions Of The Past.flac" WAVE
TRACK 01 AUDIO
TITLE "Visions Of The Past"
PERFORMER "Axewitch"
INDEX 01 00:00:00
TRACK 02 AUDIO
TITLE "Give Them Hell"
PERFORMER "Axewitch"
INDEX 01 04:06:17
TRACK 03 AUDIO
TITLE "Tonight"
PERFORMER "Axewitch"
INDEX 01 08:39:27
TRACK 04 AUDIO
TITLE "Hot Lady"
PERFORMER "Axewitch"
INDEX 01 12:41:07
TRACK 05 AUDIO
TITLE "Stand Up"
PERFORMER "Axewitch"
INDEX 01 17:06:50
TRACK 06 AUDIO
TITLE "Heading For A Storm"
PERFORMER "Axewitch"
INDEX 01 20:59:05
TRACK 07 AUDIO
TITLE "Born In Hell"
PERFORMER "Axewitch"
INDEX 01 27:20:74
TRACK 08 AUDIO
TITLE "Time To Live"
PERFORMER "Axewitch"
INDEX 01 31:08:27
TRACK 09 AUDIO
TITLE "Evil Circle (Pre-Production Demo 1984)"
PERFORMER "Axewitch"
INDEX 01 35:07:47
TRACK 10 AUDIO
TITLE "Visions Of The Past (Pre-Production Demo 1984)"
PERFORMER "Axewitch"
INDEX 01 39:02:57
TRACK 11 AUDIO
TITLE "Give Them Hell (Pre-Production Demo 1984)"
PERFORMER "Axewitch"
INDEX 01 43:28:51
TRACK 12 AUDIO
TITLE "Tonight (Pre-Production Demo 1984)"
PERFORMER "Axewitch"
INDEX 01 47:45:67
TRACK 13 AUDIO
TITLE "Hot Lady (Pre-Production Demo 1984)"
PERFORMER "Axewitch"
INDEX 01 51:48:37
TRACK 14 AUDIO
TITLE "Heading For A Storm (Pre-Production Demo 1984)"
PERFORMER "Axewitch"
INDEX 01 56:14:01
TRACK 15 AUDIO
TITLE "Time To Live (Pre-Production Demo 1984)"
PERFORMER "Axewitch"
INDEX 01 62:59:68
TRACK 16 AUDIO
TITLE "Crazy And Wild (Demo 1985)"
PERFORMER "Axewitch"
INDEX 01 67:30:53
TRACK 17 AUDIO
TITLE "Nightmare (Live 1991)"
PERFORMER "Axewitch"
INDEX 01 75:14:18

spectrum
Image

_________________


Top
 Profile E-mail  
 
 
PostPosted: 04 Sep 2013 
HAMMER
User avatar
Joined: 16 May 2009
Posts: 5488
Lоcаtion: Тверь
Age: 46
Name: Александр
Scatterbrain wrote:
На Фолдыре лимит до 400 метров

500

А что с этим адресом не так? :vic:


Top
 Profile E-mail  
 
 
PostPosted: 04 Sep 2013 
Хиппей (support team)
User avatar
Joined: 30 Jul 2007
Posts: 114953
Lоcаtion: Киев (Kyiv, UA)
Age: 46
Name: Andrey
Заслушал оба альбома внимательно.
Ну чего сказать - понравились :dance:
Несмотря на то, что по сути это шведский вариант Iron Maiden только с более мощным и грубоватым мужским вокалом, если так можно выразиться :vic: Ну и присущей шведам мелодичностью в... кхм, мелодиях :scratch:

1984 - 6+/10
1985 - 6/10

_________________


Top
 Profile E-mail  
 
 
PostPosted: 04 Sep 2013 
Хиппей (support team)
User avatar
Joined: 30 Jul 2007
Posts: 114953
Lоcаtion: Киев (Kyiv, UA)
Age: 46
Name: Andrey
Molot wrote:
500

Да, с утра глянул, угу, 500 Mb.
Molot wrote:
А что с этим адресом не так? :vic:

Саш, он коммерческий. То есть, привязан к конкретному аккаунту, владелец которого при скачивании получает прибыль.
Сейчас по адресу http://rusfolder.net/files/37879474 уже тоже есть ограничение по рекламе, но вчера еще не было, а into же была сразу реклама.
Image
Мне еще интересно и забавно знать, получилось еще у кого-то скачать с Русфолдыря эти 12 кусков и слепить в два лося? :dance:

_________________


Top
 Profile E-mail  
 
 
PostPosted: 04 Sep 2013 
Трешер
User avatar
Joined: 25 Feb 2011
Posts: 1115
Lоcаtion: Харьков
Age: 43
Name: Aleksandr
:true: спасибо рябят!


Top
 Profile E-mail  
 
 
PostPosted: 06 Sep 2013 
Хиппей (support team)
User avatar
Joined: 30 Jul 2007
Posts: 114953
Lоcаtion: Киев (Kyiv, UA)
Age: 46
Name: Andrey
Запрос закрыт :dance: Тема переносится в "Бухту".

_________________


Top
 Profile E-mail  
 
 
PostPosted: 15 Sep 2013 
Работнечег
User avatar
Joined: 28 Aug 2007
Posts: 6035
Lоcаtion: г. Москва
Age: 30
Name: Дима
Есть оба альбома на дисках. Если в вышеуказанных рипах не хватает сканов или ещё чего-то, то пишите, рипну со своих)


Top
 Profile E-mail  
 
 
PostPosted: 15 Sep 2013 
\m/ 80 см сала \m/
User avatar
Joined: 12 Mar 2012
Posts: 2590
Age: 26
Name: Nick
Дим, а дебютника '83 года случайно нет в закромах? :oops:

_________________
1990 AUROPHON BRAINSTORM (Germany) - lossless
1994 MAUSOLEUM CLASSIX (Belgium-Germany) - lossless
1998 VA - GRIM HARVEST - Complete Metal Massacre Volumes I-XII


Top
 Profile  
 
 
PostPosted: 15 Sep 2013 
Трешер
User avatar
Joined: 25 Feb 2011
Posts: 1115
Lоcаtion: Харьков
Age: 43
Name: Aleksandr
А вот тут - чем не подходит ? :pardon: "The Lord of Flies"
вот еще Axe Witch


Top
 Profile E-mail  
 
 
PostPosted: 15 Sep 2013 
\m/ 80 см сала \m/
User avatar
Joined: 12 Mar 2012
Posts: 2590
Age: 26
Name: Nick
Проблемы с закачкой с трекеров :pardon:
А вообще спасибо, попрошу знакомых перезалить :thanx:

_________________
1990 AUROPHON BRAINSTORM (Germany) - lossless
1994 MAUSOLEUM CLASSIX (Belgium-Germany) - lossless
1998 VA - GRIM HARVEST - Complete Metal Massacre Volumes I-XII


Top
 Profile  
 
Display posts from previous:  Sort by  
Post new topic Reply to topic  [ 43 posts ]  Go to page Previous  1, 2, 3  Next

All times are UTC + 3 hours


Who is online

Users browsing this forum: No registered users and 0 guests


You cannot post new topics in this forum
You cannot reply to topics in this forum
You cannot edit your posts in this forum
You cannot delete your posts in this forum
You cannot post attachments in this forum

Search for:
Яндекс.Метрика
Powered by phpBB © 2000, 2002, 2005, 2007 phpBB Group