\m/ 80's metal \m/

Информационно-аналитический форум "80 см пыли" (In Search We Trust) "У нас никто никуда не спешит"
Me For You - http://me-4u.com
It is currently 22 Oct 2019

All times are UTC + 3 hours

Spoiler
Chat - temporary registration for foreign users (please leave your application here)







Post new topic Reply to topic  [ 7 posts ] 
Author Message
 
PostPosted: 27 Jul 2013 
Работнечег
User avatar
Joined: 28 Aug 2007
Posts: 6037
Lоcаtion: г. Москва
Age: 30
Name: Дима
Image

Band: Art Of Fear
Album: Kill The Demon
Label: Self-released
Genre: Power/Thrash Metal
Country: Austria
Format: Flac + Log + Cue + Covers
Size: 256 Mb

Line-Up:
Thomas Metzler - Guitar, Vocals (Mortician)
Joe Künz - Drums
Johannes Leierer - Bass (Divine Temptation, Siegfried)

Tracklist:
1. Day After Day 03:14
2. Kill the Demon 05:34
3. Direct my Fate 05:03
4. Send me Money 04:27
5. The Game 02:44
6. Can't Break Me 04:52
7. Vertigo 03:50
8. Torture of the Soul 03:29

LOG
Exact Audio Copy V0.99 prebeta 5 from 4. May 2009

EAC extraction logfile from 27. July 2013, 19:10

Art Of Fear / Kill The Demon

Used drive : PIONEER DVD-RW DVR-116D Adapter: 0 ID: 0

Read mode : Secure
Utilize accurate stream : Yes
Defeat audio cache : Yes
Make use of C2 pointers : No

Read offset correction : 96
Overread into Lead-In and Lead-Out : No
Fill up missing offset samples with silence : Yes
Delete leading and trailing silent blocks : No
Null samples used in CRC calculations : Yes
Used interface : Native Win32 interface for Win NT & 2000

Used output format : User Defined Encoder
Selected bitrate : 32 kBit/s
Quality : High
Add ID3 tag : No
Command line compressor : C:\Program Files\Exact Audio Copy\Flac\flac.exe
Additional command line options : -6 -V %s


TOC of the extracted CD

Track | Start | Length | Start sector | End sector
---------------------------------------------------------
1 | 0:00.00 | 3:14.53 | 0 | 14602
2 | 3:14.53 | 5:34.43 | 14603 | 39695
3 | 8:49.21 | 5:03.32 | 39696 | 62452
4 | 13:52.53 | 4:27.74 | 62453 | 82551
5 | 18:20.52 | 2:44.45 | 82552 | 94896
6 | 21:05.22 | 4:52.50 | 94897 | 116846
7 | 25:57.72 | 3:50.11 | 116847 | 134107
8 | 29:48.08 | 3:29.22 | 134108 | 149804


Range status and errors

Selected range

Filename D:\Музыка\Lossless\Art Of Fear - Kill The Demon (2000)\Art Of Fear - Kill The Demon.wav

Peak level 99.0 %
Range quality 100.0 %
Copy CRC 02053B59
Copy OK

No errors occurred


AccurateRip summary

Track 1 accurately ripped (confidence 1) [7D7E2A60]
Track 2 accurately ripped (confidence 1) [802B494B]
Track 3 accurately ripped (confidence 1) [17225943]
Track 4 accurately ripped (confidence 1) [E9953E79]
Track 5 accurately ripped (confidence 1) [C649AA97]
Track 6 accurately ripped (confidence 1) [06A90ECA]
Track 7 not present in database
Track 8 accurately ripped (confidence 1) [2A401A7F]

7 track(s) accurately ripped
1 track(s) not present in the AccurateRip database

Some tracks could not be verified as accurate

End of status report

CUE
REM GENRE "Power Metal"
REM DATE 2000
REM DISCID 6307CD08
REM COMMENT "ExactAudioCopy v0.99pb5"
PERFORMER "Art Of Fear"
TITLE "Kill The Demon"
FILE "Art Of Fear - Kill The Demon.flac" WAVE
TRACK 01 AUDIO
TITLE "Day After Day"
PERFORMER "Art Of Fear"
INDEX 01 00:00:00
TRACK 02 AUDIO
TITLE "Kill The Demon"
PERFORMER "Art Of Fear"
INDEX 01 03:14:53
TRACK 03 AUDIO
TITLE "Direct My Fate"
PERFORMER "Art Of Fear"
INDEX 01 08:49:21
TRACK 04 AUDIO
TITLE "Send Me Money"
PERFORMER "Art Of Fear"
INDEX 01 13:52:53
TRACK 05 AUDIO
TITLE "The Game"
PERFORMER "Art Of Fear"
INDEX 01 18:20:52
TRACK 06 AUDIO
TITLE "Can't Break Me"
PERFORMER "Art Of Fear"
INDEX 01 21:05:22
TRACK 07 AUDIO
TITLE "Vertigo"
PERFORMER "Art Of Fear"
INDEX 01 25:57:72
TRACK 08 AUDIO
TITLE "Tortue Of The Soul"
PERFORMER "Art Of Fear"
INDEX 01 29:48:08


Rusfolder.Ru

Такой переходный альбом, от чистого трэша на первом минике к аггрессивному паверу на втором альбоме, получился. В целом не лучший альбом группы, имхо :nea:


Top
 Profile E-mail  
 
 
PostPosted: 27 Jul 2013 
Хиппей (support team)
User avatar
Joined: 30 Jul 2007
Posts: 115005
Lоcаtion: Киев (Kyiv, UA)
Age: 46
Name: Andrey
Ууу... какой Шрэк с мячиком смешной :crazy:

Спасибо за лосика :thanx:

mirror: F-Bit l Narod

_________________


Top
 Profile E-mail  
 
 
PostPosted: 27 Jul 2013 
Работнечег
User avatar
Joined: 28 Aug 2007
Posts: 6037
Lоcаtion: г. Москва
Age: 30
Name: Дима
Ууу... какой Шрэк с мячиком смешной :crazy:

да, картинки у них довольно интересные почти на всех алльбомах :true:


Top
 Profile E-mail  
 
 
PostPosted: 27 Jul 2013 
спирт 100%
User avatar
Joined: 22 Sep 2008
Posts: 4477
Age: 48
Name: Саня
И здесь, Спасибо! :thanx:


Top
 Profile  
 
 
PostPosted: 27 Jul 2013 
ТрэшЭрос
User avatar
Joined: 18 Jul 2011
Posts: 2305
Lоcаtion: Гулькевичи
Age: 44
Name: Александр
Ну-ну, послушаем, чем убиение демона закончицца :crazy:
Пасипке, Дима!!! :true:

_________________
Thrash no trash!!!


Top
 Profile E-mail  
 
 
PostPosted: 28 Jul 2013 
Alive Again
User avatar
Joined: 17 Dec 2008
Posts: 4747
Lоcаtion: Курск Воронеж Оскол
Age: 45
Name: Дмитрий
:thanx:


Top
 Profile E-mail  
 
 
PostPosted: 29 Jul 2013 
Хиппей (support team)
User avatar
Joined: 30 Jul 2007
Posts: 115005
Lоcаtion: Киев (Kyiv, UA)
Age: 46
Name: Andrey
Немного смешной альбом. Вокалист понравился - местами очь ржачно срывается с оригинального речитатива на вопли_типы_рык :crazy: :true:

Прога и павера пока особо не заметил :vic:

4/10

_________________


Top
 Profile E-mail  
 
Display posts from previous:  Sort by  
Post new topic Reply to topic  [ 7 posts ] 

All times are UTC + 3 hours


Who is online

Users browsing this forum: No registered users and 2 guests


You cannot post new topics in this forum
You cannot reply to topics in this forum
You cannot edit your posts in this forum
You cannot delete your posts in this forum
You cannot post attachments in this forum

Search for:
Яндекс.Метрика
Powered by phpBB © 2000, 2002, 2005, 2007 phpBB Group