\m/ 80's metal \m/

Информационно-аналитический форум "80 см пыли" (In Search We Trust) "У нас никто никуда не спешит"
Me For You - http://me-4u.com
It is currently 18 Jun 2019

All times are UTC + 3 hours

Spoiler
Chat - temporary registration for foreign users (please leave your application here)







Post new topic Reply to topic  [ 7 posts ] 
Author Message
 
PostPosted: 07 Apr 2013 
Работнечег
User avatar
Joined: 28 Aug 2007
Posts: 5846
Lоcаtion: г. Москва
Age: 30
Name: Дима
Image

Band: Axewitch
Album: Pray For Metal EP (1982)(Re-released In 2005)
Label: Metal For Muthas/High Voltage
Genre: Heavy Metal
Country: Sweden
Format: Flac + Log + Cue + Covers
Size: 534 Mb

Line-Up:
Mats Johansson - Drums
Magnus Jarl - Guitar
Anders Wallentoft - Vocals
Tommy Brage - Bass
Mikael Johansson - Guitar


Tracklist:
1. Born in a Hell 04:16
2. Heavy Revolution 03:33
3. In the End of the World 04:35
4. Death Angel 03:38
Re-Release Version (High Vaultage Rec. / 2005) with several Bonus Tracks:
5. Axewitch (Demo 1982) 3:37
6. Nightmare (Demo 1982) 6:29)
7. Beyond the Realms of Death (Demo 1982) 5:37
8. We Salute this Town (Demo 1986) 3:25
9. Dance to the Music (Demo 1986) 5:00
10. Four Wheel Drive (Demo 1986) 4:23
11. It's a Lie (Live 1985) 3:04
12. City's on Fire / Shadows through the Night (Live 1985) 09:16
13. Back to Reality (Live 1985) 3:33
14. Four Centuries Ago (Live 1985) 4:04
15. Back in Trouble (Live 1985) 3:01
16. Antisocial (Live 1981) 4:16

LOG
Exact Audio Copy V0.99 prebeta 5 from 4. May 2009

EAC extraction logfile from 7. April 2013, 16:21

Axewitch / Pray For Metal EP (Re-Released In 2005)

Used drive : PIONEER DVD-RW DVR-116D Adapter: 0 ID: 0

Read mode : Secure
Utilize accurate stream : Yes
Defeat audio cache : Yes
Make use of C2 pointers : No

Read offset correction : 96
Overread into Lead-In and Lead-Out : No
Fill up missing offset samples with silence : Yes
Delete leading and trailing silent blocks : No
Null samples used in CRC calculations : Yes
Used interface : Native Win32 interface for Win NT & 2000

Used output format : User Defined Encoder
Selected bitrate : 32 kBit/s
Quality : High
Add ID3 tag : No
Command line compressor : C:\Program Files\Exact Audio Copy\Flac\flac.exe
Additional command line options : -6 -V %s


TOC of the extracted CD

Track | Start | Length | Start sector | End sector
---------------------------------------------------------
1 | 0:00.00 | 4:16.65 | 0 | 19264
2 | 4:16.65 | 3:33.67 | 19265 | 35306
3 | 7:50.57 | 4:35.37 | 35307 | 55968
4 | 12:26.19 | 3:38.03 | 55969 | 72321
5 | 16:04.22 | 3:37.07 | 72322 | 88603
6 | 19:41.29 | 6:29.46 | 88604 | 117824
7 | 26:11.00 | 5:37.60 | 117825 | 143159
8 | 31:48.60 | 3:25.61 | 143160 | 158595
9 | 35:14.46 | 5:00.25 | 158596 | 181120
10 | 40:14.71 | 4:23.62 | 181121 | 200907
11 | 44:38.58 | 3:04.68 | 200908 | 214775
12 | 47:43.51 | 9:15.74 | 214776 | 256474
13 | 56:59.50 | 3:33.69 | 256475 | 272518
14 | 60:33.44 | 4:04.31 | 272519 | 290849
15 | 64:38.00 | 3:01.19 | 290850 | 304443
16 | 67:39.19 | 4:16.43 | 304444 | 323686


Range status and errors

Selected range

Filename D:\Музыка\Lossless\Axewitch - Pray For Metal EP (1982) (Re-released In 2005)\Axewitch - Pray For Metal EP (Re-Released In 2005).wav

Peak level 100.0 %
Range quality 99.8 %
Copy CRC 31C87696
Copy OK

No errors occurred


AccurateRip summary

Track 1 not present in database
Track 2 not present in database
Track 3 not present in database
Track 4 not present in database
Track 5 not present in database
Track 6 not present in database
Track 7 not present in database
Track 8 not present in database
Track 9 not present in database
Track 10 not present in database
Track 11 not present in database
Track 12 not present in database
Track 13 not present in database
Track 14 not present in database
Track 15 not present in database
Track 16 not present in database

None of the tracks are present in the AccurateRip database

End of status report

CUE
REM GENRE "Heavy Metal"
REM DATE 1982
REM DISCID E310DB10
REM COMMENT "ExactAudioCopy v0.99pb5"
PERFORMER "Axewitch"
TITLE "Pray For Metal EP (Re-Released In 2005)"
FILE "Axewitch - Pray For Metal EP (Re-Released In 2005).flac" WAVE
TRACK 01 AUDIO
TITLE "Born In A Hell"
PERFORMER "Axewitch"
INDEX 01 00:00:00
TRACK 02 AUDIO
TITLE "Heavy Revolution"
PERFORMER "Axewitch"
INDEX 00 04:15:65
INDEX 01 04:16:65
TRACK 03 AUDIO
TITLE "In The End Of The World"
PERFORMER "Axewitch"
INDEX 00 07:49:57
INDEX 01 07:50:57
TRACK 04 AUDIO
TITLE "Death Angel"
PERFORMER "Axewitch"
INDEX 00 12:25:19
INDEX 01 12:26:19
TRACK 05 AUDIO
TITLE "Axewitch (Demo 1982)"
PERFORMER "Axewitch"
INDEX 00 16:01:22
INDEX 01 16:04:22
TRACK 06 AUDIO
TITLE "Nightmare (Demo 1982)"
PERFORMER "Axewitch"
INDEX 00 19:40:29
INDEX 01 19:41:29
TRACK 07 AUDIO
TITLE "Beyond The Realms Of Death (Demo 1982)"
PERFORMER "Axewitch"
INDEX 00 26:10:00
INDEX 01 26:11:00
TRACK 08 AUDIO
TITLE "We Salute This Town (The Losers Demo)"
PERFORMER "Axewitch"
INDEX 00 31:47:43
INDEX 01 31:48:60
TRACK 09 AUDIO
TITLE "Dance To The Music (The Losers Demo)"
PERFORMER "Axewitch"
INDEX 00 35:13:46
INDEX 01 35:14:46
TRACK 10 AUDIO
TITLE "Four Wheel Drive (The Losers Demo)"
PERFORMER "Axewitch"
INDEX 00 40:13:56
INDEX 01 40:14:71
TRACK 11 AUDIO
TITLE "It's A Lie (Live 1985)"
PERFORMER "Axewitch"
INDEX 00 44:37:61
INDEX 01 44:38:58
TRACK 12 AUDIO
TITLE "City's On Fire \ Shadows Through The Night (Live 1985)"
PERFORMER "Axewitch"
INDEX 00 47:42:66
INDEX 01 47:43:51
TRACK 13 AUDIO
TITLE "Back To Reality (Live 1981)"
PERFORMER "Axewitch"
INDEX 00 56:58:30
INDEX 01 56:59:50
TRACK 14 AUDIO
TITLE "Four Centuries Ago (Live 1981)"
PERFORMER "Axewitch"
INDEX 00 60:32:45
INDEX 01 60:33:44
TRACK 15 AUDIO
TITLE "Back In Trouble (Live 1981)"
PERFORMER "Axewitch"
INDEX 00 64:36:50
INDEX 01 64:38:00
TRACK 16 AUDIO
TITLE "Antisocial (Live 1981)"
PERFORMER "Axewitch"
INDEX 00 67:37:56
INDEX 01 67:39:19

Spectrum
Image


F-Bit

Крепкий добротный релиз, бонусы звучат чуть хуже, но в целом различие в саунде сильно в уши не бросается)
P.S. Тестим новый файлообменник, в плане заливки всё понравилось пока)

phpBB [youtube]

phpBB [youtube]


Top
 Profile E-mail  
 
 
PostPosted: 07 Apr 2013 
спирт 100%
User avatar
Joined: 22 Sep 2008
Posts: 4427
Age: 47
Name: Саня
Спасибо Дим! :true:


Top
 Profile  
 
 
PostPosted: 08 Apr 2013 
Хиппей (support team)
User avatar
Joined: 30 Jul 2007
Posts: 113081
Lоcаtion: Киев (Kyiv, UA)
Age: 46
Name: Andrey
Дим, спасибо =)

Ни хрена себе "миник", подумал я, тыкнув в ссылку и глянув объем файла :ura:

church wrote:
Тестим новый файлообменник, в плане заливки всё понравилось пока)

Ну и скачалось на максимальной скорости :dance: У иностранных юзеров вроде тоже проблем не должно возникнуть со скачиванием.

mirror: F-Bit l Narod

_________________


Top
 Profile E-mail  
 
 
PostPosted: 07 May 2013 
Power Metal Maniac
User avatar
Joined: 09 Aug 2008
Posts: 6748
Lоcаtion: Москва
Age: 41
Name: Егор
:thanx:

_________________
Long Live Metal!


Top
 Profile  
 
 
PostPosted: 07 May 2013 
Генеральный thrasher
User avatar
Joined: 03 Oct 2008
Posts: 3710
Lоcаtion: Ханты-Мансийский АО
Age: 44
Name: Сергей
Что-то не заметил темку.Быстро видать слетела из активных топиков...Спасибо,Дим!


Top
 Profile  
 
 
PostPosted: 05 Jul 2013 
Хиппей (support team)
User avatar
Joined: 30 Jul 2007
Posts: 113081
Lоcаtion: Киев (Kyiv, UA)
Age: 46
Name: Andrey
Что-то не заметил темку.Быстро видать слетела из активных топиков...Спасибо,Дим!

Серёг, дык, а этой ссылкой search.php?search_id=unread ты не пользуешься? :vic:

_________________


Top
 Profile E-mail  
 
 
PostPosted: 08 Jul 2013 
Alive Again
User avatar
Joined: 17 Dec 2008
Posts: 4747
Lоcаtion: Курск Воронеж Оскол
Age: 44
Name: Дмитрий
:thanx:


Top
 Profile E-mail  
 
Display posts from previous:  Sort by  
Post new topic Reply to topic  [ 7 posts ] 

All times are UTC + 3 hours


Who is online

Users browsing this forum: No registered users and 2 guests


You cannot post new topics in this forum
You cannot reply to topics in this forum
You cannot edit your posts in this forum
You cannot delete your posts in this forum
You cannot post attachments in this forum

Search for:
Яндекс.Метрика
Powered by phpBB © 2000, 2002, 2005, 2007 phpBB Group