\m/ 80's metal \m/

Информационно-аналитический форум "80 см пыли" (In Search We Trust) "У нас никто никуда не спешит"
Me For You - http://me-4u.com
It is currently 20 Mar 2019

All times are UTC + 3 hours

Spoiler
Chat - temporary registration for foreign users (please leave your application here)







Post new topic Reply to topic  [ 11 posts ] 
Author Message
 
PostPosted: 03 Mar 2013 
Работнечег
User avatar
Joined: 28 Aug 2007
Posts: 5753
Lоcаtion: г. Москва
Age: 29
Name: Дима
Image

Band: Art Of Fear
Album: Pride Of Creation EP
Label: Self-released
Genre: Power Metal
Country: Austria
Format: Flac + Log + Cue + Covers
Size: 158 Mb

Line-Up:
Thomas Metzler - Guitars (Mortician)
Joe Künz - Drums
Johannes Leierer - Bass (Divine Temptation, Siegfried)
Thomas Cassan - Vocals


Tracklist:
1. Against the Law 04:01
2. Pride of Creation 04:32
3. Braveheart 06:40
4. Living on the Razor's Edge 05:27

LOG
Exact Audio Copy V0.99 prebeta 5 from 4. May 2009

EAC extraction logfile from 3. March 2013, 18:50

Art Of Fear / Pride Of Creation EP

Used drive : PIONEER DVD-RW DVR-116D Adapter: 0 ID: 0

Read mode : Secure
Utilize accurate stream : Yes
Defeat audio cache : Yes
Make use of C2 pointers : No

Read offset correction : 96
Overread into Lead-In and Lead-Out : No
Fill up missing offset samples with silence : Yes
Delete leading and trailing silent blocks : No
Null samples used in CRC calculations : Yes
Used interface : Native Win32 interface for Win NT & 2000

Used output format : User Defined Encoder
Selected bitrate : 32 kBit/s
Quality : High
Add ID3 tag : No
Command line compressor : C:\Program Files\Exact Audio Copy\Flac\flac.exe
Additional command line options : -6 -V %s


TOC of the extracted CD

Track | Start | Length | Start sector | End sector
---------------------------------------------------------
1 | 0:00.00 | 4:01.30 | 0 | 18104
2 | 4:01.30 | 4:32.10 | 18105 | 38514
3 | 8:33.40 | 6:40.68 | 38515 | 68582
4 | 15:14.33 | 5:27.71 | 68583 | 93178


Range status and errors

Selected range

Filename D:\Музыка\Lossless\Art Of Fear - Pride Of Creation EP (2001)\Art Of Fear - Pride Of Creation EP.wav

Peak level 99.1 %
Range quality 100.0 %
Copy CRC 0B392F60
Copy OK

No errors occurred


AccurateRip summary

Track 1 not present in database
Track 2 not present in database
Track 3 not present in database
Track 4 not present in database

None of the tracks are present in the AccurateRip database

End of status report

CUE
REM GENRE "Power Metal"
REM DATE 2001
REM DISCID 2604DA04
REM COMMENT "ExactAudioCopy v0.99pb5"
PERFORMER "Art Of Fear"
TITLE "Pride Of Creation EP"
FILE "Art Of Fear - Pride Of Creation EP.flac" WAVE
TRACK 01 AUDIO
TITLE "Against The Law"
PERFORMER "Art Of Fear"
INDEX 01 00:00:00
TRACK 02 AUDIO
TITLE "Pride Of Creation"
PERFORMER "Art Of Fear"
INDEX 01 04:01:30
TRACK 03 AUDIO
TITLE "Braveheart"
PERFORMER "Art Of Fear"
INDEX 01 08:33:40
TRACK 04 AUDIO
TITLE "Living On The Razors Edge"
PERFORMER "Art Of Fear"
INDEX 01 15:14:33


Ifolder.Ru

Песенка Braveheart впоследствии появилась на альбоме 2004 года Master of Pain, а вот оставшиеся 3 композиции можно услышать токо на этой ипишке.
P.S. продолжает безуспешно искаться последняя ипишка группы Powertrip (2009). Если кто увидит в продаже, плиз отпишитесь.
P.P.S. Если кому-то нужно, могу мп3 сделать.


Top
 Profile E-mail  
 
 
PostPosted: 04 Mar 2013 
Хиппей (support team)
User avatar
Joined: 30 Jul 2007
Posts: 111038
Lоcаtion: Киев (Kyiv, UA)
Age: 45
Name: Andrey
:thanx:

mirror: MultiUp l Narod

_________________


Top
 Profile E-mail  
 
 
PostPosted: 04 Mar 2013 
Генеральный thrasher
User avatar
Joined: 03 Oct 2008
Posts: 3664
Lоcаtion: Ханты-Мансийский АО
Age: 44
Name: Сергей
:true: :losik: :thanx:


Top
 Profile  
 
 
PostPosted: 04 Mar 2013 
ТрэшЭрос
User avatar
Joined: 18 Jul 2011
Posts: 2302
Lоcаtion: Гулькевичи
Age: 44
Name: Александр
church, спасибо тяжелогромнейшее!!! :thanx:

...искаться последняя ипишка

Дим, а Демона-2000 уже убили? :oops:

_________________
Thrash no trash!!!


Top
 Profile E-mail  
 
 
PostPosted: 04 Mar 2013 
Работнечег
User avatar
Joined: 28 Aug 2007
Posts: 5753
Lоcаtion: г. Москва
Age: 29
Name: Дима
church, спасибо тяжелогромнейшее!!! :thanx:

...искаться последняя ипишка

Дим, а Демона-2000 уже убили? :oops:

Демон должен приехать, но вот токо видя какая ситуация на почте не знаю когда, уже почти 2 месяца прошло :fingal:


Top
 Profile E-mail  
 
 
PostPosted: 05 Mar 2013 
ТрэшЭрос
User avatar
Joined: 18 Jul 2011
Posts: 2302
Lоcаtion: Гулькевичи
Age: 44
Name: Александр
Боюсь ошибиться, но какбе почтальон не оказался :meloman:
church wrote:
ситуация на почте

В день получения бандэролки с ЦД в отделении связи было весело: :dance: :ula: :yahoo:
Начальник почты :oldman: увидел это и отругал сотрудников. Приказал немедленно доставить диск Чёрчу, однако :meloman: вышел из почтового отделения, обернулся и :snooks: :chebur:

И вот,
church wrote:
почти 2 месяца прошло...

На три даблъю :true: :true: :true: http://80s.takemetal.com забили тревогу :esel:

_________________
Thrash no trash!!!


Top
 Profile E-mail  
 
 
PostPosted: 08 Mar 2013 
Работнечег
User avatar
Joined: 28 Aug 2007
Posts: 5753
Lоcаtion: г. Москва
Age: 29
Name: Дима
Боюсь ошибиться, но какбе почтальон не оказался :meloman:
church wrote:
ситуация на почте

В день получения бандэролки с ЦД в отделении связи было весело: :dance: :ula: :yahoo:
Начальник почты :oldman: увидел это и отругал сотрудников. Приказал немедленно доставить диск Чёрчу, однако :meloman: вышел из почтового отделения, обернулся и :snooks: :chebur:

И вот,
church wrote:
почти 2 месяца прошло...

На три даблъю :true: :true: :true: http://80s.takemetal.com забили тревогу :esel:

Очень может быть :true: надеюсь теперь про Чёрча вспомнят и диск будет доставлен :benya:


Top
 Profile E-mail  
 
 
PostPosted: 27 Mar 2013 
Труъ
User avatar
Joined: 05 Oct 2008
Posts: 194
Lоcаtion: Saint Petersburg
Age: 45
Name: Jesse
Большое спасибо за миник! :thanx:


Top
 Profile  
 
 
PostPosted: 21 Apr 2013 
Работнечег
User avatar
Joined: 28 Aug 2007
Posts: 5753
Lоcаtion: г. Москва
Age: 29
Name: Дима
Есть хорошие новости: во-первых прибыл всё-таки альбом Kill The Demon, а во-вторых на немецком ебэе всплыл-таки миник Powertrip и уже в пути ко мне, так что диискография этой хорошей группы будет полностью в lossless)


Top
 Profile E-mail  
 
 
PostPosted: 21 Apr 2013 
Хиппей (support team)
User avatar
Joined: 30 Jul 2007
Posts: 111038
Lоcаtion: Киев (Kyiv, UA)
Age: 45
Name: Andrey
:ura:

_________________


Top
 Profile E-mail  
 
 
PostPosted: 22 Apr 2013 
ТрэшЭрос
User avatar
Joined: 18 Jul 2011
Posts: 2302
Lоcаtion: Гулькевичи
Age: 44
Name: Александр
:true: :dance: :kz: :yahoo:

_________________
Thrash no trash!!!


Top
 Profile E-mail  
 
Display posts from previous:  Sort by  
Post new topic Reply to topic  [ 11 posts ] 

All times are UTC + 3 hours


Who is online

Users browsing this forum: No registered users and 1 guest


You cannot post new topics in this forum
You cannot reply to topics in this forum
You cannot edit your posts in this forum
You cannot delete your posts in this forum
You cannot post attachments in this forum

Search for:
Яндекс.Метрика
Powered by phpBB © 2000, 2002, 2005, 2007 phpBB Group