\m/ 80's metal \m/

Информационно-аналитический форум "80 см пыли" (In Search We Trust) "У нас никто никуда не спешит"
Me For You - http://me-4u.com
It is currently 17 Oct 2019

All times are UTC + 3 hours

Spoiler
Chat - temporary registration for foreign users (please leave your application here)







Post new topic Reply to topic  [ 17 posts ] 
Author Message
 
PostPosted: 17 Feb 2013 
Работнечег
User avatar
Joined: 28 Aug 2007
Posts: 6031
Lоcаtion: г. Москва
Age: 30
Name: Дима
Image

Band: Agony Column
Album: Way Back In The Woods
Label: No Bull Records
Genre: Heavy Metal
Country: USA
Format: Flac + Log + Cue + Covers/Mp3@320 kbps + Covers
Size: 454 Mb / 152 Mb

Line-Up:
Richie Turner - Vocals
Stuart Lawrence - Guitars
Billy Dansfiell - Bass
Charlie Brownell - Drums


Tracklist:
1. The Spirit Rises 04:01
2. Way Back In the Woods 04:57
3. Flying Sorceress 06:53
4. Obey the Command 05:04
5. The Night Has 1000 Eyes 05:31
6. Silver Spoon 09:40
7. Whiskey Bottle 04:36
8. Golly Wog 05:40
9. Small Black Toad 06:34
10. When the Dark Clouds Return 08:41
11. The Devil's Carnival 03:05

LOG
Exact Audio Copy V0.99 prebeta 5 from 4. May 2009

EAC extraction logfile from 13. January 2013, 15:24

Agony Column / Way Back In The Woods

Used drive : PIONEER DVD-RW DVR-116D Adapter: 0 ID: 0

Read mode : Secure
Utilize accurate stream : Yes
Defeat audio cache : Yes
Make use of C2 pointers : No

Read offset correction : 96
Overread into Lead-In and Lead-Out : No
Fill up missing offset samples with silence : Yes
Delete leading and trailing silent blocks : No
Null samples used in CRC calculations : Yes
Used interface : Native Win32 interface for Win NT & 2000

Used output format : User Defined Encoder
Selected bitrate : 32 kBit/s
Quality : High
Add ID3 tag : No
Command line compressor : C:\Program Files\Exact Audio Copy\Flac\flac.exe
Additional command line options : -6 -V %s


TOC of the extracted CD

Track | Start | Length | Start sector | End sector
---------------------------------------------------------
1 | 0:00.00 | 4:01.33 | 0 | 18107
2 | 4:01.33 | 4:57.41 | 18108 | 40423
3 | 8:58.74 | 6:53.29 | 40424 | 71427
4 | 15:52.28 | 5:04.00 | 71428 | 94227
5 | 20:56.28 | 5:31.39 | 94228 | 119091
6 | 26:27.67 | 9:40.17 | 119092 | 162608
7 | 36:08.09 | 4:35.52 | 162609 | 183285
8 | 40:43.61 | 5:39.74 | 183286 | 208784
9 | 46:23.60 | 6:34.09 | 208785 | 238343
10 | 52:57.69 | 8:40.52 | 238344 | 277395
11 | 61:38.46 | 3:06.27 | 277396 | 291372


Range status and errors

Selected range

Filename D:\Музыка\Lossless\Agony Column - Way Back In The Woods (1995)\Agony Column - Way Back In The Woods.wav

Peak level 94.4 %
Range quality 100.0 %
Copy CRC 001A8948
Copy OK

No errors occurred


AccurateRip summary

Track 1 cannot be verified as accurate (confidence 1) [138F7454], AccurateRip returned [0FB2280C]
Track 2 cannot be verified as accurate (confidence 1) [73748BF0], AccurateRip returned [2CD67860]
Track 3 cannot be verified as accurate (confidence 1) [1DA4EDF9], AccurateRip returned [D4B7CD61]
Track 4 cannot be verified as accurate (confidence 1) [12EE6245], AccurateRip returned [67D9AD5D]
Track 5 cannot be verified as accurate (confidence 1) [2C78E976], AccurateRip returned [629CBBFE]
Track 6 cannot be verified as accurate (confidence 1) [D7DB1D52], AccurateRip returned [5908E015]
Track 7 cannot be verified as accurate (confidence 1) [C3B84950], AccurateRip returned [98394E6D]
Track 8 cannot be verified as accurate (confidence 1) [D1701910], AccurateRip returned [4C6F9228]
Track 9 cannot be verified as accurate (confidence 1) [7635CA43], AccurateRip returned [AE1B9043]
Track 10 cannot be verified as accurate (confidence 1) [F849B589], AccurateRip returned [A6F5055C]
Track 11 cannot be verified as accurate (confidence 1) [83F06CFE], AccurateRip returned [B2FF7C6B]

No tracks could be verified as accurate
You may have a different pressing from the one(s) in the database

End of status report

CUE
REM GENRE "Heavy Metal"
REM DATE 1995
REM DISCID 9A0F2C0B
REM COMMENT "ExactAudioCopy v0.99pb5"
PERFORMER "Agony Column"
TITLE "Way Back In The Woods"
FILE "Agony Column - Way Back In The Woods.flac" WAVE
TRACK 01 AUDIO
TITLE "The Spirit Rises"
PERFORMER "Agony Column"
FLAGS DCP
INDEX 01 00:00:00
TRACK 02 AUDIO
TITLE "Way Back In The Woods"
PERFORMER "Agony Column"
FLAGS DCP
INDEX 01 04:01:33
TRACK 03 AUDIO
TITLE "Flying Sorceress"
PERFORMER "Agony Column"
FLAGS DCP
INDEX 01 08:58:74
TRACK 04 AUDIO
TITLE "Obey The Command"
PERFORMER "Agony Column"
FLAGS DCP
INDEX 01 15:52:28
TRACK 05 AUDIO
TITLE "The Night Has 1000 Eyes"
PERFORMER "Agony Column"
FLAGS DCP
INDEX 01 20:56:28
TRACK 06 AUDIO
TITLE "Silver Spoon"
PERFORMER "Agony Column"
FLAGS DCP
INDEX 01 26:27:67
TRACK 07 AUDIO
TITLE "Whiskey Bottle"
PERFORMER "Agony Column"
FLAGS DCP
INDEX 01 36:08:09
TRACK 08 AUDIO
TITLE "GollyWog"
PERFORMER "Agony Column"
FLAGS DCP
INDEX 01 40:43:61
TRACK 09 AUDIO
TITLE "Small Black Toad"
PERFORMER "Agony Column"
FLAGS DCP
INDEX 01 46:23:60
TRACK 10 AUDIO
TITLE "When The Dark Clouds Return"
PERFORMER "Agony Column"
FLAGS DCP
INDEX 01 52:57:69
TRACK 11 AUDIO
TITLE "The Devils Carnival"
PERFORMER "Agony Column"
FLAGS DCP
INDEX 01 61:38:46

Spectrum
Image


MP3@320
FLAC


Top
 Profile E-mail  
 
 
PostPosted: 18 Feb 2013 
ТрэшЭрос
User avatar
Joined: 18 Jul 2011
Posts: 2305
Lоcаtion: Гулькевичи
Age: 44
Name: Александр
Дима, :thanx:

phpBB [youtube]

_________________
Thrash no trash!!!


Top
 Profile E-mail  
 
 
PostPosted: 18 Feb 2013 
Прокъмитолист
User avatar
Joined: 12 Aug 2007
Posts: 6623
Lоcаtion: Санктъ-Петербуркъ
Age: 51
Name: Олекъ
надо бы забрать. спасибо, Димка :thanx:

_________________
прокъметол - это музыко, от которово есть прок (ы)


Top
 Profile  
 
 
PostPosted: 19 Feb 2013 
Хиппей (support team)
User avatar
Joined: 30 Jul 2007
Posts: 114881
Lоcаtion: Киев (Kyiv, UA)
Age: 46
Name: Andrey
Красота какая. Димка, спасибо :thanx:

mirror: MultiUp l Narod

_________________


Top
 Profile E-mail  
 
 
PostPosted: 19 Feb 2013 
Хиппей (support team)
User avatar
Joined: 30 Jul 2007
Posts: 114881
Lоcаtion: Киев (Kyiv, UA)
Age: 46
Name: Andrey
Занятно, что архив на Народ был залит еще 13 января... :scratch:

_________________


Top
 Profile E-mail  
 
 
PostPosted: 19 Feb 2013 
Работнечег
User avatar
Joined: 28 Aug 2007
Posts: 6031
Lоcаtion: г. Москва
Age: 30
Name: Дима
Ага, я совсем обленился и оформил через месяц токо :oops:


Top
 Profile E-mail  
 
 
PostPosted: 20 Feb 2013 
Хиппей (support team)
User avatar
Joined: 30 Jul 2007
Posts: 114881
Lоcаtion: Киев (Kyiv, UA)
Age: 46
Name: Andrey
Да бросай как Кирюха когда - сразу все ссылки :crazy: Пипл схавает :true:

_________________


Top
 Profile E-mail  
 
 
PostPosted: 20 Feb 2013 
А может смените мне статус?..
User avatar
Joined: 24 Dec 2008
Posts: 648
Age: 45
Name: Дмитрий
Спасибо! :thanx:


Top
 Profile  
 
 
PostPosted: 20 Feb 2013 
Хиппей (support team)
User avatar
Joined: 30 Jul 2007
Posts: 114881
Lоcаtion: Киев (Kyiv, UA)
Age: 46
Name: Andrey
Ваще-та охренезный альбом :true: Чуть вечернее пару словей скажу по нему. Хоть явно раньше и говорил.... :pardon:
Но сейчас произошло некое переосмысление :oops:

_________________


Top
 Profile E-mail  
 
 
PostPosted: 20 Feb 2013 
Хиппей (support team)
User avatar
Joined: 30 Jul 2007
Posts: 114881
Lоcаtion: Киев (Kyiv, UA)
Age: 46
Name: Andrey
В общем, из-за отсутствия времени, снова кратко...
Итак, если вы, как и я, не любите медленную, среднетемповую и тягучую музыку с унылым вокалом и однотипными риффами, то... То вам нам всем обязательно нужно послушать этот альбом и раз там ашнадцать. А лучше затем и диск прикупить :meloman:
Был несколько лет назад в Рунете такой хороший ресурс как "Дизель точка биз" - ребятки два раза в месяц выкладывали в mp3 какой-то альбом в рамках вот таких вот направлений, как stoner, slugde, doom и прочими составляющими. Иногда что-то попадалось для меня весьма достойное, но основная масса - унылое однотипное "горемычьё" и нытьё, уж простите, если кого задену этими словами.
Несколько лет назад, до того, как Роб Элсфорт перенёс операцию на связках гортани, издал он альбом под именем проекта Cursed и совместно с коллегами тихо так и монотонно пел и наигрывал на гитарках и... в общем-то, вышло не апчхи что, даже мне, почти фэну группу Overkill это "нечто" понравилось лишь как побочный продукт товарища Бобби. На самом деле никакой музыкальной ценности тот альбом так и не поимел.
А вот эта группа и этот альбом ну просто лапочка :meloman: :meloman: :meloman:
Второй день не могу насладиться сим чудом. Здесь вроде тоже всё монотонно и однообразно, но... Хех, на самом деле вовсе не так это. И даже очень разнообразно ребята играют, еще более разнообразно поют и мелодии, как ни странно, везде разные :shok: И атмосфера, как ни странно, очень разнится - от юморной до чернушной. Хоть это и не блэк, но атмосферность очень даже присутствует.
Ухощипательный такой саунд у коллектива, который пока я не могу спутать ни с какой-либо другой группой.
Да даже с Corrosion Of Conformity не спутаю =)

Ага, и самое главное. Кто-то очень метко обозначал стиль группы как... Southern Metal. Ха, а почему бы и нет? Всё даже очень весьма соответствует. Ёмко, кратко и всё понятно :dance: Ковбои, прерии, кони, салуны, кольты и бабы. Ну и кактус под седлом.

Пока всё. Оценка 8/10

phpBB [youtube]


зы. Естественно, альбом рекомендован к прослушиванию товарищу Константину Олдрокеру. Хотя, думаю, он с этой группой давно знаком :pardon:

_________________


Top
 Profile E-mail  
 
 
PostPosted: 27 Feb 2013 
Работнечег
User avatar
Joined: 28 Aug 2007
Posts: 6031
Lоcаtion: г. Москва
Age: 30
Name: Дима
Спасибо за ревьюшку, Андрюх, всё верно подмечено :true:
А на дизеле периодически попадались хорошие альбомы, я немного покачал даж оттуда)


Top
 Profile E-mail  
 
 
PostPosted: 27 Feb 2013 
Хиппей (support team)
User avatar
Joined: 30 Jul 2007
Posts: 114881
Lоcаtion: Киев (Kyiv, UA)
Age: 46
Name: Andrey
church wrote:
я немного покачал даж оттуда)

..а всё успел утянуть... :oops:

_________________


Top
 Profile E-mail  
 
 
PostPosted: 27 Feb 2013 
Работнечег
User avatar
Joined: 28 Aug 2007
Posts: 6031
Lоcаtion: г. Москва
Age: 30
Name: Дима
church wrote:
я немного покачал даж оттуда)

..а всё успел утянуть... :oops:

не, пару альбомов токо :oops:


Top
 Profile E-mail  
 
 
PostPosted: 27 Feb 2013 
Хиппей (support team)
User avatar
Joined: 30 Jul 2007
Posts: 114881
Lоcаtion: Киев (Kyiv, UA)
Age: 46
Name: Andrey
А... ууу ыыы я пропустил букву "я" :oops:
То есть, йа всё оттель скачал. Ну, как обычно :crazy:

_________________


Top
 Profile E-mail  
 
 
PostPosted: 27 Feb 2013 
спирт 100%
User avatar
Joined: 22 Sep 2008
Posts: 4474
Age: 48
Name: Саня
Дим,Спасибо!!! :thanx:


Top
 Profile  
 
 
PostPosted: 28 Feb 2013 
Работнечег
User avatar
Joined: 28 Aug 2007
Posts: 6031
Lоcаtion: г. Москва
Age: 30
Name: Дима
А... ууу ыыы я пропустил букву "я" :oops:


У меня проскочила такая мысль, но я решил не переспрашивать :crazy:


Top
 Profile E-mail  
 
 
PostPosted: 19 Mar 2013 
Alive Again
User avatar
Joined: 17 Dec 2008
Posts: 4747
Lоcаtion: Курск Воронеж Оскол
Age: 45
Name: Дмитрий
:thanx: приятная штука


Top
 Profile E-mail  
 
Display posts from previous:  Sort by  
Post new topic Reply to topic  [ 17 posts ] 

All times are UTC + 3 hours


Who is online

Users browsing this forum: No registered users and 1 guest


You cannot post new topics in this forum
You cannot reply to topics in this forum
You cannot edit your posts in this forum
You cannot delete your posts in this forum
You cannot post attachments in this forum

Search for:
Яндекс.Метрика
Powered by phpBB © 2000, 2002, 2005, 2007 phpBB Group