\m/ 80's metal \m/

Информационно-аналитический форум "80 см пыли" (In Search We Trust) "У нас никто никуда не спешит"
Me For You - http://me-4u.com
It is currently 17 Oct 2019

All times are UTC + 3 hours

Spoiler
Chat - temporary registration for foreign users (please leave your application here)







Post new topic Reply to topic  [ 9 posts ] 
Author Message
 
PostPosted: 13 Dec 2012 
А может смените мне статус?..
User avatar
Joined: 24 Sep 2012
Posts: 856
Lоcаtion: Нижегородская обл.
Age: 49
Name: Вячеслав
Image

Исполнитель: Ace Lane
Альбом: See you in Heaven
Страна: UK
Год издания: 1983 (Reissued 1994)
Страна производителя диска: Germany
Издатель (лейбл) /Номер по каталогу: Mausoleum / 704113.2
Жанр: Hard Rock / Heavy Metal
Формат Аудио: FLAC (Cue/Log/Image)+ All Scans
Продолжительность Звучания Альбома: 00:37:20
Размер Архива: 282 Mb (+ 3% recovery)
Источник (релизер): slayer19

Треклист:

01. Emotion (2:57)
02. See You In Heaven (5:05)
03. Rock & Roll In The City (3:04)
04. Cold Nights (3:03)
05. Don't Shine Your Light (5:33)
06. Never The Same (3:45)
07. Always (3:07)
08. Girl Fever (3:04)
09. Dancing The Night Away (3:38)
10. Jay (4:03)

"Лог создания рипа"
Exact Audio Copy V1.0 beta 3 from 29. August 2011

Отчёт EAC об извлечении, выполненном 13. декабря 2012, 14:31

Ace Lane / See you in Heaven

Дисковод: Optiarc DVD RW AD-7200A Adapter: 0 ID: 0

Режим чтения : Достоверность
Использование точного потока : Да
Отключение кэша аудио : Да
Использование указателей C2 : Нет

Коррекция смещения при чтении : 48
Способность читать области Lead-in и Lead-out : Нет
Заполнение пропущенных сэмплов тишиной : Да
Удаление блоков с тишиной в начале и конце : Нет
При вычислениях CRC использовались нулевые сэмплы : Да
Интерфейс : Встроенный Win32-интерфейс для Win NT/2000

Выходной формат : Пользовательский кодировщик
Выбранный битрейт : 128 kBit/s
Качество : Высокий
Добавление ID3-тега : Нет
Утилита сжатия : C:\Program Files\FLAC\FLAC frontend.exe

TOC извлечённого CD

Трек | Старт | Длительность | Начальный сектор | Конечный сектор
---------------------------------------------------------------------
1 | 0:00.00 | 2:56.65 | 0 | 13264
2 | 2:56.65 | 5:04.70 | 13265 | 36134
3 | 8:01.60 | 3:04.10 | 36135 | 49944
4 | 11:05.70 | 3:02.67 | 49945 | 63661
5 | 14:08.62 | 5:33.08 | 63662 | 88644
6 | 19:41.70 | 3:44.42 | 88645 | 105486
7 | 23:26.37 | 3:07.08 | 105487 | 119519
8 | 26:33.45 | 3:04.35 | 119520 | 133354
9 | 29:38.05 | 3:38.22 | 133355 | 149726
10 | 33:16.27 | 4:03.30 | 149727 | 167981

Характеристики диапазона извлечения и сообщения об ошибках

Выбранный диапазон

Имя файла D:\МОИ ФАЙЛЫ\LOSSLESS\slayer19\Ace Lane - See you in Heaven.wav

Пиковый уровень 99.1 %
Скорость извлечения 3.8 X
Качество диапазона 100.0 %
CRC теста 0D6F6C1F
CRC копии 0D6F6C1F
Копирование... OK

Ошибок не произошло

AccurateRip: сводка

Трек 1 отсутствует в базе данных
Трек 2 отсутствует в базе данных
Трек 3 отсутствует в базе данных
Трек 4 отсутствует в базе данных
Трек 5 отсутствует в базе данных
Трек 6 отсутствует в базе данных
Трек 7 отсутствует в базе данных
Трек 8 отсутствует в базе данных
Трек 9 отсутствует в базе данных
Трек 10 отсутствует в базе данных

Ни одного трека нет в базе AccurateRip

Конец отчёта

---- CUETools DB Plugin V2.1.3

[CTDB TOCID: jK8VyiPmR.8_CGSTz23IcKyjXeU-] disk not present in database, Submit result: jK8VyiPmR.8_CGSTz23IcKyjXeU- has been uploaded

==== Контрольная сумма отчёта 7BE1407162A80B87D3AEE0A0B3E578DD65BDD580555D0AA19DCE8EADA13B14CC ====

"Фото"
Image


Cкачать: Ace Lane - See you in Heaven 1983 (Reissued 1994) by slayer19.rar

_________________
Image


Top
 Profile E-mail  
 
 
PostPosted: 13 Dec 2012 
Пионэръ
User avatar
Joined: 02 Jul 2010
Posts: 45
Lоcаtion: Сочи
Age: 47
Name: Борис
Спасибо :thanx: :thanx:


Top
 Profile E-mail  
 
 
PostPosted: 13 Dec 2012 
Old Time Rock`n`Roll
User avatar
Joined: 23 Jun 2008
Posts: 3490
Warnings: 1
Lоcаtion: г.Ульяновск
Age: 41
Name: Константин
Спасибо, срочно забираем! :true:


Top
 Profile  
 
 
PostPosted: 13 Dec 2012 
спирт 100%
User avatar
Joined: 22 Sep 2008
Posts: 4474
Age: 48
Name: Саня
Спасибо! :thanx:


Top
 Profile  
 
 
PostPosted: 14 Dec 2012 
А может смените мне статус?..
User avatar
Joined: 24 Sep 2012
Posts: 856
Lоcаtion: Нижегородская обл.
Age: 49
Name: Вячеслав
Пожалуйста всем! :drink:

_________________
Image


Top
 Profile E-mail  
 
 
PostPosted: 14 Dec 2012 
Прокъмитолист
User avatar
Joined: 12 Aug 2007
Posts: 6623
Lоcаtion: Санктъ-Петербуркъ
Age: 51
Name: Олекъ
еще один Мавзолей в копилочку. Слава, спасибо :thanx:

_________________
прокъметол - это музыко, от которово есть прок (ы)


Top
 Profile  
 
 
PostPosted: 27 Jul 2013 
Хиппей (support team)
User avatar
Joined: 30 Jul 2007
Posts: 114881
Lоcаtion: Киев (Kyiv, UA)
Age: 46
Name: Andrey
:thanx:

mirror: F-Bit l Narod

_________________


Top
 Profile E-mail  
 
 
PostPosted: 07 Aug 2013 
Доктор энтомологии
User avatar
Joined: 22 Jan 2009
Posts: 9925
Lоcаtion: Даугавпилс
Age: 44
Name: Алексей
:thanx:


Top
 Profile  
 
 
PostPosted: 12 Oct 2013 
\m/ 80 см сала \m/
User avatar
Joined: 12 Mar 2012
Posts: 2590
Age: 26
Name: Nick
slayer19 , :thanx:

_________________
1990 AUROPHON BRAINSTORM (Germany) - lossless
1994 MAUSOLEUM CLASSIX (Belgium-Germany) - lossless
1998 VA - GRIM HARVEST - Complete Metal Massacre Volumes I-XII


Top
 Profile  
 
Display posts from previous:  Sort by  
Post new topic Reply to topic  [ 9 posts ] 

All times are UTC + 3 hours


Who is online

Users browsing this forum: No registered users and 1 guest


You cannot post new topics in this forum
You cannot reply to topics in this forum
You cannot edit your posts in this forum
You cannot delete your posts in this forum
You cannot post attachments in this forum

Search for:
Яндекс.Метрика
cron
Powered by phpBB © 2000, 2002, 2005, 2007 phpBB Group