\m/ 80's metal \m/

Информационно-аналитический форум "80 см пыли" (In Search We Trust) "У нас никто никуда не спешит"
Me For You - http://me-4u.com
It is currently 20 Oct 2019

All times are UTC + 3 hours

Spoiler
Chat - temporary registration for foreign users (please leave your application here)







Post new topic Reply to topic  [ 7 posts ] 
Author Message
 
PostPosted: 05 Nov 2012 
Работнечег
User avatar
Joined: 28 Aug 2007
Posts: 6035
Lоcаtion: г. Москва
Age: 30
Name: Дима
Image

Band: Art Of Fear
Album: Master Of Pain
Label: Self-released
Genre: Power Metal
Country: Austria
Format: Flac + Log + Cue + Covers/Mp3@320 kbps + Covers
Size: 318 Mb / 97 Mb

Line-Up:
Thomas Metzler - Guitars (Mortician)
Joe Künz - Drums
Johannes Leierer - Bass (Divine Temptation, Siegfried)
Thomas Cassan - Vocals


Tracklist:
1. The Mirror 00:38
2. Face to Face 04:54
3. Prisoners of Hate 03:24
4. Master of Pain 04:05
5. Time to Pay 04:33
6. Now is not Forever 03:34
7. Another Lie 05:07
8. Follow Me 03:48
9. Burn 04:55
10. Braveheart 06:52


LOG
Exact Audio Copy V0.99 prebeta 5 from 4. May 2009

EAC extraction logfile from 5. November 2012, 16:45

Art Of Fear / Master Of Pain

Used drive : PIONEER DVD-RW DVR-116D Adapter: 0 ID: 0

Read mode : Secure
Utilize accurate stream : Yes
Defeat audio cache : Yes
Make use of C2 pointers : No

Read offset correction : 96
Overread into Lead-In and Lead-Out : No
Fill up missing offset samples with silence : Yes
Delete leading and trailing silent blocks : No
Null samples used in CRC calculations : Yes
Used interface : Native Win32 interface for Win NT & 2000

Used output format : User Defined Encoder
Selected bitrate : 32 kBit/s
Quality : High
Add ID3 tag : No
Command line compressor : C:\Program Files\Exact Audio Copy\Flac\flac.exe
Additional command line options : -6 -V %s


TOC of the extracted CD

Track | Start | Length | Start sector | End sector
---------------------------------------------------------
1 | 0:00.00 | 0:38.31 | 0 | 2880
2 | 0:38.31 | 4:54.72 | 2881 | 25002
3 | 5:33.28 | 3:24.53 | 25003 | 40355
4 | 8:58.06 | 4:05.54 | 40356 | 58784
5 | 13:03.60 | 4:34.50 | 58785 | 79384
6 | 17:38.35 | 3:35.08 | 79385 | 95517
7 | 21:13.43 | 5:08.53 | 95518 | 118670
8 | 26:22.21 | 3:49.02 | 118671 | 135847
9 | 30:11.23 | 4:56.36 | 135848 | 158083
10 | 35:07.59 | 6:53.19 | 158084 | 189077


Range status and errors

Selected range

Filename D:\Музыка\Lossless\Art Of Fear - Master Of Pain (2004)\Art Of Fear - Master Of Pain.wav

Peak level 100.0 %
Range quality 99.9 %
Copy CRC 0B4FDFFB
Copy OK

No errors occurred


AccurateRip summary

Track 1 not present in database
Track 2 not present in database
Track 3 not present in database
Track 4 not present in database
Track 5 not present in database
Track 6 not present in database
Track 7 not present in database
Track 8 not present in database
Track 9 not present in database
Track 10 not present in database

None of the tracks are present in the AccurateRip database

End of status report

CUE
REM GENRE "Power Metal"
REM DATE 2004
REM DISCID 6F09D90A
REM COMMENT "ExactAudioCopy v0.99pb5"
PERFORMER "Art Of Fear"
TITLE "Master Of Pain "
FILE "Art Of Fear - Master Of Pain.flac" WAVE
TRACK 01 AUDIO
TITLE "The Mirror"
PERFORMER "Art Of Fear"
INDEX 01 00:00:00
TRACK 02 AUDIO
TITLE "Face To Face"
PERFORMER "Art Of Fear"
INDEX 01 00:38:31
TRACK 03 AUDIO
TITLE "Prisoners Of Hate"
PERFORMER "Art Of Fear"
INDEX 01 05:33:28
TRACK 04 AUDIO
TITLE "Master Of Pain"
PERFORMER "Art Of Fear"
INDEX 01 08:58:06
TRACK 05 AUDIO
TITLE "Time To Pay"
PERFORMER "Art Of Fear"
INDEX 01 13:03:60
TRACK 06 AUDIO
TITLE "Now Is Not Forever"
PERFORMER "Art Of Fear"
INDEX 01 17:38:35
TRACK 07 AUDIO
TITLE "Another Lie"
PERFORMER "Art Of Fear"
INDEX 01 21:13:43
TRACK 08 AUDIO
TITLE "Follow Me"
PERFORMER "Art Of Fear"
INDEX 01 26:22:21
TRACK 09 AUDIO
TITLE "Burn"
PERFORMER "Art Of Fear"
INDEX 01 30:11:23
TRACK 10 AUDIO
TITLE "Braveheart"
PERFORMER "Art Of Fear"
INDEX 01 35:07:59

Spectrum
Image
Image


FLAC
MP3@320

Собственно отличный альбом, все больше нравится эта группа, качайте не пожалеете!
P.S. народ глючит, поэтому залил на фолдер) скорее всего добавлю зеркало и на народ, но позже.


Top
 Profile E-mail  
 
 
PostPosted: 05 Nov 2012 
спирт 100%
User avatar
Joined: 22 Sep 2008
Posts: 4475
Age: 48
Name: Саня
Дим и здесь ,Спасибо! :true:


Top
 Profile  
 
 
PostPosted: 07 Nov 2012 
Прокъмитолист
User avatar
Joined: 12 Aug 2007
Posts: 6627
Lоcаtion: Санктъ-Петербуркъ
Age: 52
Name: Олекъ
Димка, спасибо! :thanx:

_________________
прокъметол - это музыко, от которово есть прок (ы)


Top
 Profile  
 
 
PostPosted: 07 Nov 2012 
Персональный статус
Joined: 02 Apr 2010
Posts: 223
Name: Андрей
Обложка прикольная. :crazy: Пожалуй послушаю что за группа... Спасибо.


Top
 Profile  
 
 
PostPosted: 07 Jan 2013 
Труъ
User avatar
Joined: 05 Oct 2008
Posts: 194
Lоcаtion: Saint Petersburg
Age: 46
Name: Jesse
И здесь благдарствую! Группа хороша!


Top
 Profile  
 
 
PostPosted: 23 Apr 2013 
Gretzky must die
User avatar
Joined: 16 Sep 2010
Posts: 265
Lоcаtion: Московская обл.
Name: Андрей
Спасибо ! Мощь. Альбом 1997 года, по мне, вообще неслушабельный. Очень уж на тогдашнюю моду заточенный. А вот этот и 2007 - просто прекрасны. Въехал, правда не с первого раза, зато потом - просто получил большое, эстетическое удовольствие. :thanx:


Top
 Profile  
 
 
PostPosted: 23 Apr 2013 
Хиппей (support team)
User avatar
Joined: 30 Jul 2007
Posts: 114953
Lоcаtion: Киев (Kyiv, UA)
Age: 46
Name: Andrey
:thanx:

mirror: F-Bit l Narod

Чо-то я поздно в темку зашёл :pardon: Вернее, вовремя успел =)

_________________


Top
 Profile E-mail  
 
Display posts from previous:  Sort by  
Post new topic Reply to topic  [ 7 posts ] 

All times are UTC + 3 hours


Who is online

Users browsing this forum: No registered users and 2 guests


You cannot post new topics in this forum
You cannot reply to topics in this forum
You cannot edit your posts in this forum
You cannot delete your posts in this forum
You cannot post attachments in this forum

Search for:
Яндекс.Метрика
Powered by phpBB © 2000, 2002, 2005, 2007 phpBB Group