\m/ 80's metal \m/

Информационно-аналитический форум "80 см пыли" (In Search We Trust) "У нас никто никуда не спешит"
Me For You - http://me-4u.com
It is currently 19 Oct 2019

All times are UTC + 3 hours

Spoiler
Chat - temporary registration for foreign users (please leave your application here)







Post new topic Reply to topic  [ 5 posts ] 
Author Message
 
PostPosted: 30 Oct 2012 
А может смените мне статус?..
User avatar
Joined: 24 Sep 2012
Posts: 856
Lоcаtion: Нижегородская обл.
Age: 49
Name: Вячеслав
Image

Жанр: Heavy Metal
Страна: Finland (Lappeenranta)
Год издания диска: 2008
Издатель (лейбл): Nuclear War Now! Productions
Номер по каталогу: Anti-Goth 092
Аудио кодек: FLAC (*.flac)
Тип рипа: image+.cue
Битрейт аудио: lossless
Продолжительность: 31:09
Источник (релизер): slayer19
Наличие сканов в содержимом раздачи: да (All Scans)

Треклист:

1. Speeding into the Night (04:05)
2. Swing of the Axe (04:24)
3. Lick the Blade (03:09)
4. Love Crime (04:02)
5. Heavy Metal Drinkers (03:38)
6. Lucifer (04:40)
7. Hellfire (03:04)
8. Roll Out (or Get Rocked) (04:10)

"Лог создания рипа"
Exact Audio Copy V1.0 beta 3 from 29. August 2011

Отчёт EAC об извлечении, выполненном 27. октября 2012, 11:43

Armour / Sonichouse Tape (American Invasion)

Дисковод: Optiarc DVD RW AD-7200A Adapter: 0 ID: 0

Режим чтения : Достоверность
Использование точного потока : Да
Отключение кэша аудио : Да
Использование указателей C2 : Нет

Коррекция смещения при чтении : 48
Способность читать области Lead-in и Lead-out : Нет
Заполнение пропущенных сэмплов тишиной : Да
Удаление блоков с тишиной в начале и конце : Нет
При вычислениях CRC использовались нулевые сэмплы : Да
Интерфейс : Встроенный Win32-интерфейс для Win NT/2000

Выходной формат : Пользовательский кодировщик
Выбранный битрейт : 128 kBit/s
Качество : Высокий
Добавление ID3-тега : Нет
Утилита сжатия : C:\Program Files\FLAC\FLAC frontend.exe

TOC извлечённого CD

Трек | Старт | Длительность | Начальный сектор | Конечный сектор
---------------------------------------------------------------------
1 | 0:00.00 | 4:04.48 | 0 | 18347
2 | 4:04.48 | 4:23.48 | 18348 | 38120
3 | 8:28.21 | 3:08.48 | 38121 | 52268
4 | 11:36.69 | 4:01.48 | 52269 | 70391
5 | 15:38.42 | 3:37.48 | 70392 | 86714
6 | 19:16.15 | 4:39.48 | 86715 | 107687
7 | 23:55.63 | 3:03.48 | 107688 | 121460
8 | 26:59.36 | 4:09.48 | 121461 | 140183

Характеристики диапазона извлечения и сообщения об ошибках

Выбранный диапазон

Имя файла D:\МОИ ФАЙЛЫ\LOSSLESS\slayer19\Armour - Sonichouse Tape (American Invasion).wav

Пиковый уровень 99.8 %
Скорость извлечения 3.3 X
Качество диапазона 100.0 %
CRC теста 91C4FB41
CRC копии 91C4FB41
Копирование... OK

Ошибок не произошло

AccurateRip: сводка

Трек 1 : извлечено точно (доверие 1) [09639E0C] (AR v1)
Трек 2 : извлечено точно (доверие 1) [F8091037] (AR v1)
Трек 3 : извлечено точно (доверие 1) [A1FB93CD] (AR v1)
Трек 4 : извлечено точно (доверие 1) [0EE19E4E] (AR v1)
Трек 5 : извлечено точно (доверие 1) [8F51F1E7] (AR v1)
Трек 6 : извлечено точно (доверие 1) [F2BD9571] (AR v1)
Трек 7 : извлечено точно (доверие 1) [65A90D61] (AR v1)
Трек 8 : извлечено точно (доверие 1) [98075B2B] (AR v1)

Все треки извлечены точно

Конец отчёта

---- CUETools DB Plugin V2.1.3

[CTDB TOCID: SKFKu5JZU_.dDPHPDBESjBVjF3g-] found, Submit result: SKFKu5JZU_.dDPHPDBESjBVjF3g- has been confirmed
[4a0b7cd4] (1/1) Accurately ripped

==== Контрольная сумма отчёта 9221AE3A59AFE63289B383A7F840941E4023C4A38E893228DC99C6506C06DAA4 ====

"Фото"
Image


Cкачать: Armour - Sonichouse Tape (American Invasion) 2008 by slayer19.rar


Image

Жанр: Heavy Metal
Страна: Finland (Lappeenranta)
Год издания диска: 2009
Издатель (лейбл): Hells Headbangers
Номер по каталогу: Hells 045
Аудио кодек: FLAC (*.flac)
Тип рипа: image+.cue
Битрейт аудио: lossless
Продолжительность: 39:23
Источник (релизер): slayer19
Наличие сканов в содержимом раздачи: да (All Scans)

Треклист:

01. Rock 'n' Roll Tonite (03:14)
02. The Time Is Right (05:10)
03. Sex Demon (03:23)
04. Roll Out (Or Get Rocked) (03:46 )
05. Satan's Knights (03:45)
06. Can't Resist Your Spell (05:25)
07. Magick Armour (03:36)
08. Hellfire (03:00)
09. Ready to Attack (04:38)
10. Heavy Metal Drinkers (03:26)

"Лог создания рипа"
Exact Audio Copy V1.0 beta 3 from 29. August 2011

Отчёт EAC об извлечении, выполненном 27. октября 2012, 12:55

Armour / Armour

Дисковод: Optiarc DVD RW AD-7200A Adapter: 0 ID: 0

Режим чтения : Достоверность
Использование точного потока : Да
Отключение кэша аудио : Да
Использование указателей C2 : Нет

Коррекция смещения при чтении : 48
Способность читать области Lead-in и Lead-out : Нет
Заполнение пропущенных сэмплов тишиной : Да
Удаление блоков с тишиной в начале и конце : Нет
При вычислениях CRC использовались нулевые сэмплы : Да
Интерфейс : Встроенный Win32-интерфейс для Win NT/2000

Выходной формат : Пользовательский кодировщик
Выбранный битрейт : 128 kBit/s
Качество : Высокий
Добавление ID3-тега : Нет
Утилита сжатия : C:\Program Files\FLAC\FLAC frontend.exe

TOC извлечённого CD

Трек | Старт | Длительность | Начальный сектор | Конечный сектор
---------------------------------------------------------------------
1 | 0:00.00 | 3:13.65 | 0 | 14539
2 | 3:13.65 | 5:10.06 | 14540 | 37795
3 | 8:23.71 | 3:23.03 | 37796 | 53023
4 | 11:46.74 | 3:45.48 | 53024 | 69946
5 | 15:32.47 | 3:45.23 | 69947 | 86844
6 | 19:17.70 | 5:24.66 | 86845 | 111210
7 | 24:42.61 | 3:36.26 | 111211 | 127436
8 | 28:19.12 | 3:00.13 | 127437 | 140949
9 | 31:19.25 | 4:37.64 | 140950 | 161788
10 | 35:57.14 | 3:25.56 | 161789 | 177219

Характеристики диапазона извлечения и сообщения об ошибках

Выбранный диапазон

Имя файла D:\МОИ ФАЙЛЫ\LOSSLESS\slayer19\Armour - Armour.wav

Пиковый уровень 98.8 %
Скорость извлечения 3.4 X
Качество диапазона 99.9 %
CRC теста B2EC5F5D
CRC копии B2EC5F5D
Копирование... OK

Ошибок не произошло

AccurateRip: сводка

Трек 1 : извлечено точно (доверие 2) [2A0B8E66] (AR v1)
Трек 2 : извлечено точно (доверие 2) [2DFD4F22] (AR v1)
Трек 3 : извлечено точно (доверие 2) [A4BAE3F5] (AR v1)
Трек 4 : извлечено точно (доверие 2) [C1FF9B4F] (AR v1)
Трек 5 : извлечено точно (доверие 2) [CF8B82FF] (AR v1)
Трек 6 : извлечено точно (доверие 2) [BE69BA06] (AR v1)
Трек 7 : извлечено точно (доверие 2) [C2CCB70A] (AR v1)
Трек 8 : извлечено точно (доверие 2) [824D5A45] (AR v1)
Трек 9 : извлечено точно (доверие 2) [D2F2DBE7] (AR v1)
Трек 10 : извлечено точно (доверие 2) [2983B72A] (AR v1)

Все треки извлечены точно

Конец отчёта

---- CUETools DB Plugin V2.1.3

[CTDB TOCID: OxYWB10bLV9nyzejbZJqgHSxBDY-] disk not present in database, Submit result: OxYWB10bLV9nyzejbZJqgHSxBDY- has been uploaded

==== Контрольная сумма отчёта B5C4221B186D6DF960B0281C4D28CF1026BA277A635D9071A8B33FBB27D26B33 ====

"Фото"
Image


Скачать: Armour - Armour (2009) by slayer19.rar

_________________
Image


Top
 Profile E-mail  
 
 
PostPosted: 31 Oct 2012 
ТрэшЭрос
User avatar
Joined: 18 Jul 2011
Posts: 2305
Lоcаtion: Гулькевичи
Age: 44
Name: Александр
Славик, :thanx:

_________________
Thrash no trash!!!


Top
 Profile E-mail  
 
 
PostPosted: 31 Oct 2012 
А может смените мне статус?..
User avatar
Joined: 24 Sep 2012
Posts: 856
Lоcаtion: Нижегородская обл.
Age: 49
Name: Вячеслав
Дружище пожалуйста!

_________________
Image


Top
 Profile E-mail  
 
 
PostPosted: 31 Oct 2012 
Генеральный thrasher
User avatar
Joined: 03 Oct 2008
Posts: 3741
Lоcаtion: Ханты-Мансийский АО
Age: 44
Name: Сергей
Мои благодарности!


Top
 Profile  
 
 
PostPosted: 31 Oct 2012 
А может смените мне статус?..
User avatar
Joined: 24 Sep 2012
Posts: 856
Lоcаtion: Нижегородская обл.
Age: 49
Name: Вячеслав
Сергей пожалуйста!

_________________
Image


Top
 Profile E-mail  
 
Display posts from previous:  Sort by  
Post new topic Reply to topic  [ 5 posts ] 

All times are UTC + 3 hours


Who is online

Users browsing this forum: No registered users and 1 guest


You cannot post new topics in this forum
You cannot reply to topics in this forum
You cannot edit your posts in this forum
You cannot delete your posts in this forum
You cannot post attachments in this forum

Search for:
Яндекс.Метрика
Powered by phpBB © 2000, 2002, 2005, 2007 phpBB Group