\m/ 80's metal \m/

Информационно-аналитический форум "80 см пыли" (In Search We Trust) "У нас никто никуда не спешит"
Me For You - http://me-4u.com
It is currently 17 Oct 2019

All times are UTC + 3 hours

Spoiler
Chat - temporary registration for foreign users (please leave your application here)







Post new topic Reply to topic  [ 5 posts ] 
Author Message
 
PostPosted: 07 Sep 2012 
Работнечег
User avatar
Joined: 28 Aug 2007
Posts: 6031
Lоcаtion: г. Москва
Age: 30
Name: Дима
Image

Band: Allegiance
Album: D.e.s.t.i.t.u.t.i.o.n
Label: Self-Released
Genre: Thrash Metal
Country: Australia
Format: Flac + Log + Cue + Covers
Size: 342 Mb

Line-Up:
Conrad Higson - Vocals
Jason Stone - Rhytm & Lead Guitar, Keyboard, Acoustic Guitar
Tony Campo - Rhytm & Lead Guitar, Backing Vocals
David Harrison - Bass, Backing Vocals
Glen Butcher - Drums


Tracklist:
1. Intro 00:58
2. Chaos Dies 03:30
3. One Step Beyond 04:05
4. Hate Frenzy 04:35
5. Torn Between Two Worlds 05:38
6. Destitution 03:59
7. Morally Justified 04:00
8. Path of Lies 02:49
9. Dealt the Cruel Hand 04:30
10. Downward Spiral 04:21
11. Twisted Minds 04:45
12. Tranquillity 03:17

LOG
Exact Audio Copy V0.99 prebeta 5 from 4. May 2009

EAC extraction logfile from 5. September 2012, 12:30

Allegiance / D.e.s.t.i.t.u.t.i.o.n

Used drive : PIONEER DVD-RW DVR-116D Adapter: 0 ID: 0

Read mode : Secure
Utilize accurate stream : Yes
Defeat audio cache : Yes
Make use of C2 pointers : No

Read offset correction : 96
Overread into Lead-In and Lead-Out : No
Fill up missing offset samples with silence : Yes
Delete leading and trailing silent blocks : No
Null samples used in CRC calculations : Yes
Used interface : Native Win32 interface for Win NT & 2000

Used output format : User Defined Encoder
Selected bitrate : 32 kBit/s
Quality : High
Add ID3 tag : No
Command line compressor : C:\Program Files\Exact Audio Copy\Flac\flac.exe
Additional command line options : -6 -V %s


TOC of the extracted CD

Track | Start | Length | Start sector | End sector
---------------------------------------------------------
1 | 0:00.00 | 0:58.35 | 0 | 4384
2 | 0:58.35 | 3:30.47 | 4385 | 20181
3 | 4:29.07 | 4:05.43 | 20182 | 38599
4 | 8:34.50 | 4:35.52 | 38600 | 59276
5 | 13:10.27 | 5:38.73 | 59277 | 84699
6 | 18:49.25 | 3:59.17 | 84700 | 102641
7 | 22:48.42 | 4:00.38 | 102642 | 120679
8 | 26:49.05 | 2:49.22 | 120680 | 133376
9 | 29:38.27 | 4:30.40 | 133377 | 153666
10 | 34:08.67 | 4:21.68 | 153667 | 173309
11 | 38:30.60 | 4:45.17 | 173310 | 194701
12 | 43:16.02 | 3:17.60 | 194702 | 209536


Range status and errors

Selected range

Filename D:\Музыка\Lossless\Allegiance - D.e.s.t.i.t.u.t.i.o.n (1994)\Allegiance - D.e.s.t.i.t.u.t.i.o.n.wav

Peak level 96.6 %
Range quality 99.9 %
Copy CRC 7346919D
Copy OK

No errors occurred


AccurateRip summary

Track 1 not present in database
Track 2 not present in database
Track 3 not present in database
Track 4 not present in database
Track 5 not present in database
Track 6 not present in database
Track 7 not present in database
Track 8 not present in database
Track 9 not present in database
Track 10 not present in database
Track 11 not present in database
Track 12 not present in database

None of the tracks are present in the AccurateRip database

End of status report

CUE
REM GENRE "Thrash Metal"
REM DATE 1994
REM DISCID 810AE90C
REM COMMENT "ExactAudioCopy v0.99pb5"
PERFORMER "Allegiance"
TITLE "D.e.s.t.i.t.u.t.i.o.n"
FILE "Allegiance - D.e.s.t.i.t.u.t.i.o.n.flac" WAVE
TRACK 01 AUDIO
TITLE "Intro"
PERFORMER "Allegiance"
INDEX 01 00:00:00
TRACK 02 AUDIO
TITLE "Chaos Dies"
PERFORMER "Allegiance"
INDEX 01 00:58:35
TRACK 03 AUDIO
TITLE "One Step Beyond"
PERFORMER "Allegiance"
INDEX 01 04:29:07
TRACK 04 AUDIO
TITLE "Hate Frenzy"
PERFORMER "Allegiance"
INDEX 01 08:34:50
TRACK 05 AUDIO
TITLE "Torn Between Two Worlds"
PERFORMER "Allegiance"
INDEX 01 13:10:27
TRACK 06 AUDIO
TITLE "Destitution"
PERFORMER "Allegiance"
INDEX 00 18:47:72
INDEX 01 18:49:25
TRACK 07 AUDIO
TITLE "Morally Justified"
PERFORMER "Allegiance"
INDEX 01 22:48:42
TRACK 08 AUDIO
TITLE "Path Of Lies"
PERFORMER "Allegiance"
INDEX 01 26:49:05
TRACK 09 AUDIO
TITLE "Dealt The Cruel Hand"
PERFORMER "Allegiance"
INDEX 01 29:38:27
TRACK 10 AUDIO
TITLE "Downward Spiral"
PERFORMER "Allegiance"
INDEX 01 34:08:67
TRACK 11 AUDIO
TITLE "Twisted Minds"
PERFORMER "Allegiance"
INDEX 01 38:30:60
TRACK 12 AUDIO
TITLE "Tranquility"
PERFORMER "Allegiance"
INDEX 01 43:16:02


Thrassssh!

Отменный альбом! у кого нет, срочно качать)


Top
 Profile E-mail  
 
 
PostPosted: 07 Sep 2012 
спирт 100%
User avatar
Joined: 22 Sep 2008
Posts: 4474
Age: 48
Name: Саня
church wrote:
Отменный альбом! у кого нет, срочно качать)


Дим Спасибо! я тоже скачаю :true:


Top
 Profile  
 
 
PostPosted: 08 Sep 2012 
Хиппей (support team)
User avatar
Joined: 30 Jul 2007
Posts: 114881
Lоcаtion: Киев (Kyiv, UA)
Age: 46
Name: Andrey
:true: :thanx:

_________________


Top
 Profile E-mail  
 
 
PostPosted: 14 Sep 2012 
ТрэшЭрос
User avatar
Joined: 18 Jul 2011
Posts: 2305
Lоcаtion: Гулькевичи
Age: 44
Name: Александр
Дима, :thanx:
Хватаю первенца!!! А "Дерматолога"-96 нема в наличии? :oops:

_________________
Thrash no trash!!!


Top
 Profile E-mail  
 
 
PostPosted: 14 Sep 2012 
Работнечег
User avatar
Joined: 28 Aug 2007
Posts: 6031
Lоcаtion: г. Москва
Age: 30
Name: Дима
К сожалению, кроме этого альбома больше никакких нет (


Top
 Profile E-mail  
 
Display posts from previous:  Sort by  
Post new topic Reply to topic  [ 5 posts ] 

All times are UTC + 3 hours


Who is online

Users browsing this forum: No registered users and 1 guest


You cannot post new topics in this forum
You cannot reply to topics in this forum
You cannot edit your posts in this forum
You cannot delete your posts in this forum
You cannot post attachments in this forum

Search for:
Яндекс.Метрика
Powered by phpBB © 2000, 2002, 2005, 2007 phpBB Group