\m/ 80's metal \m/

Информационно-аналитический форум "80 см пыли" (In Search We Trust) "У нас никто никуда не спешит"
Me For You - http://me-4u.com
It is currently 19 Oct 2019

All times are UTC + 3 hours

Spoiler
Chat - temporary registration for foreign users (please leave your application here)







Post new topic Reply to topic  [ 10 posts ] 
Author Message
 
PostPosted: 18 Aug 2012 
Работнечег
User avatar
Joined: 28 Aug 2007
Posts: 6035
Lоcаtion: г. Москва
Age: 30
Name: Дима
Image

Band: Angus
Album: Track Of Doom + Warrior Of The World
Label: Sentinel Steel Records
Genre: Heavy Metal
Country: Netherlands
Format: Flac + Log + Cue + Covers
Size: 584 Mb

Line-Up:
on Track Of Doom album:
Bert "Foxx" Ettema - Guitars
William Lawson - Drums
Edgar Lois - Vocals
Gerard Carol - Bass


on Warrior Of The World album:
Andre Versluys - Bass
Bert "Foxx" Ettema - Guitars
William Lawson - Drums
Edgar Lois - Vocals


Tracklist:
1. The Centaur 03:42
2. When Giants Collide 05:35
3. Track of Doom 04:31
4. Heavyweight Warrior 04:23
5. Finally Out 05:49
6. The Gates 04:11
7. Dragon Chase 04:18
8. Lost Control 05:28
9. Warrior of the World 05:08
10. Moving Fast 03:42
11. Leather and Lace 03:23
12. Money Satisfies 03:35
13. Black Despair 03:55
14. 2086 05:20
15. Freedom Fighter 04:32
16. If God's in Heaven (Why Is There Hell on Earth?) 04:14

LOG
Exact Audio Copy V0.99 prebeta 5 from 4. May 2009

EAC extraction logfile from 18. August 2012, 16:11

Angus / Track of Doom - Warrior of the World

Used drive : PIONEER DVD-RW DVR-116D Adapter: 0 ID: 0

Read mode : Secure
Utilize accurate stream : Yes
Defeat audio cache : Yes
Make use of C2 pointers : No

Read offset correction : 96
Overread into Lead-In and Lead-Out : No
Fill up missing offset samples with silence : Yes
Delete leading and trailing silent blocks : No
Null samples used in CRC calculations : Yes
Used interface : Native Win32 interface for Win NT & 2000

Used output format : User Defined Encoder
Selected bitrate : 32 kBit/s
Quality : High
Add ID3 tag : No
Command line compressor : C:\Program Files\Exact Audio Copy\Flac\flac.exe
Additional command line options : -6 -V %s


TOC of the extracted CD

Track | Start | Length | Start sector | End sector
---------------------------------------------------------
1 | 0:00.00 | 3:42.24 | 0 | 16673
2 | 3:42.24 | 5:35.11 | 16674 | 41809
3 | 9:17.35 | 4:31.34 | 41810 | 62168
4 | 13:48.69 | 4:23.03 | 62169 | 81896
5 | 18:11.72 | 5:49.33 | 81897 | 108104
6 | 24:01.30 | 4:11.16 | 108105 | 126945
7 | 28:12.46 | 4:18.41 | 126946 | 146336
8 | 32:31.12 | 5:28.66 | 146337 | 171002
9 | 38:00.03 | 5:08.62 | 171003 | 194164
10 | 43:08.65 | 3:42.01 | 194165 | 210815
11 | 46:50.66 | 3:23.07 | 210816 | 226047
12 | 50:13.73 | 3:35.66 | 226048 | 242238
13 | 53:49.64 | 3:55.53 | 242239 | 259916
14 | 57:45.42 | 5:20.69 | 259917 | 283985
15 | 63:06.36 | 4:32.03 | 283986 | 304388
16 | 67:38.39 | 4:13.73 | 304389 | 323436


Range status and errors

Selected range

Filename D:\Музыка\Lossless\Angus - Track Of Doom_Warrior Of The World (2000)\Angus - Track of Doom - Warrior of the World.wav

Peak level 98.8 %
Range quality 99.9 %
Copy CRC 25585259
Copy OK

No errors occurred


AccurateRip summary

Track 1 accurately ripped (confidence 2) [88F69AEA]
Track 2 accurately ripped (confidence 2) [3CFA1CB0]
Track 3 accurately ripped (confidence 2) [08EF68EE]
Track 4 accurately ripped (confidence 2) [1B78216D]
Track 5 accurately ripped (confidence 2) [CDDBE6D2]
Track 6 accurately ripped (confidence 2) [2EA5A057]
Track 7 accurately ripped (confidence 2) [2A2321B2]
Track 8 accurately ripped (confidence 2) [CE20C471]
Track 9 accurately ripped (confidence 2) [7D3106EF]
Track 10 accurately ripped (confidence 2) [AFE5B326]
Track 11 accurately ripped (confidence 2) [3F71CEE8]
Track 12 accurately ripped (confidence 2) [84A65833]
Track 13 accurately ripped (confidence 2) [2D373011]
Track 14 accurately ripped (confidence 2) [F0C7A871]
Track 15 accurately ripped (confidence 2) [4EB4E8AF]
Track 16 accurately ripped (confidence 2) [E816EA37]

All tracks accurately ripped

End of status report

CUE
REM GENRE "Heavy Metal"
REM DATE 2000
REM DISCID DC10D810
REM COMMENT "ExactAudioCopy v0.99pb5"
PERFORMER "Angus"
TITLE "Track of Doom - Warrior of the World"
FILE "Angus - Track of Doom - Warrior of the World.flac" WAVE
TRACK 01 AUDIO
TITLE "The Centaur"
PERFORMER "Angus"
INDEX 01 00:00:00
TRACK 02 AUDIO
TITLE "When Giants Collide"
PERFORMER "Angus"
INDEX 01 03:42:24
TRACK 03 AUDIO
TITLE "Track of Doom"
PERFORMER "Angus"
INDEX 01 09:17:35
TRACK 04 AUDIO
TITLE "Heavyweight Warrior"
PERFORMER "Angus"
INDEX 01 13:48:69
TRACK 05 AUDIO
TITLE "Finally Out"
PERFORMER "Angus"
INDEX 01 18:11:72
TRACK 06 AUDIO
TITLE "The Gates"
PERFORMER "Angus"
INDEX 01 24:01:30
TRACK 07 AUDIO
TITLE "Dragon Chase"
PERFORMER "Angus"
INDEX 01 28:12:46
TRACK 08 AUDIO
TITLE "Lost Control"
PERFORMER "Angus"
INDEX 01 32:31:12
TRACK 09 AUDIO
TITLE "Warriors of the World"
PERFORMER "Angus"
INDEX 01 38:00:03
TRACK 10 AUDIO
TITLE "Moving Fast"
PERFORMER "Angus"
INDEX 01 43:08:65
TRACK 11 AUDIO
TITLE "Leather and Lace"
PERFORMER "Angus"
INDEX 01 46:50:66
TRACK 12 AUDIO
TITLE "Money Satisfies"
PERFORMER "Angus"
INDEX 01 50:13:73
TRACK 13 AUDIO
TITLE "Black Dispair"
PERFORMER "Angus"
INDEX 01 53:49:64
TRACK 14 AUDIO
TITLE "2086"
PERFORMER "Angus"
INDEX 01 57:45:42
TRACK 15 AUDIO
TITLE "Freedom Fighter"
PERFORMER "Angus"
INDEX 01 63:06:36
TRACK 16 AUDIO
TITLE "If God's In Heaven (Why Is There On Earth?)"
PERFORMER "Angus"
INDEX 01 67:38:39


Нашел на ютубе интересное видео их полного концерта с тремя редкими песнями
phpBB [youtube]


Narod.Ru
Myspace

На диск (видимо не влезла) песенка I'm a Fool with Love, а так отличное и уже редкое издание)


Top
 Profile E-mail  
 
 
PostPosted: 18 Aug 2012 
Old Time Rock`n`Roll
User avatar
Joined: 23 Jun 2008
Posts: 3490
Warnings: 1
Lоcаtion: г.Ульяновск
Age: 41
Name: Константин
Cпасибо, вот это дело! :true: :true:


Top
 Profile  
 
 
PostPosted: 18 Aug 2012 
Прокъмитолист
User avatar
Joined: 12 Aug 2007
Posts: 6627
Lоcаtion: Санктъ-Петербуркъ
Age: 52
Name: Олекъ
вроде и было уже такое, но без полноценных сканов. так что утащу. спасибо, Димка :thanx: :true:

_________________
прокъметол - это музыко, от которово есть прок (ы)


Top
 Profile  
 
 
PostPosted: 18 Aug 2012 
спирт 100%
User avatar
Joined: 22 Sep 2008
Posts: 4475
Age: 48
Name: Саня
Дим , Спасибо! :thanx:


Top
 Profile  
 
 
PostPosted: 19 Aug 2012 
Хиппей (support team)
User avatar
Joined: 30 Jul 2007
Posts: 114950
Lоcаtion: Киев (Kyiv, UA)
Age: 46
Name: Andrey
Дим, спасибо :thanx:

mirror: iFolder l Narod l M-Cloud

А звук приличный здесь? :oops:

_________________


Top
 Profile E-mail  
 
 
PostPosted: 19 Aug 2012 
Partisanen - nicht kapitulieren!!
User avatar
Joined: 25 Dec 2011
Posts: 7151
Lоcаtion: партизанские леса
Age: 47
Name: Владимир
ух ты! у товарища одного был когда-то Warrior of the World, ещё в начале 90х слушал :shok:
освежим воспоминания, биг тханкс!

_________________
One more beer and Heavy Metal and I'm just fine!
старовер, куле... слово "блин" - до сих пор через Ъ говорю


Top
 Profile E-mail  
 
 
PostPosted: 19 Aug 2012 
Работнечег
User avatar
Joined: 28 Aug 2007
Posts: 6035
Lоcаtion: г. Москва
Age: 30
Name: Дима
Дим, спасибо :thanx:
А звук приличный здесь? :oops:

Звук отличный, имхо :smile:


Top
 Profile E-mail  
 
 
PostPosted: 19 Aug 2012 
Труъ
User avatar
Joined: 27 Feb 2009
Posts: 186
Lоcаtion: Питер
Age: 52
Name: Олег
Как раз недавно их прослушал и собирался искать лося , большое спасибо :thanx:


Top
 Profile  
 
 
PostPosted: 20 Aug 2012 
А может смените мне статус?..
User avatar
Joined: 24 Dec 2008
Posts: 648
Age: 45
Name: Дмитрий
Спасибо. Тоже прихвачу!


Top
 Profile  
 
 
PostPosted: 13 Apr 2018 
А может смените мне статус?..
Joined: 03 Jul 2009
Posts: 885
Lоcаtion: Serbia
Name: Laki
Killer stuff Thanks !!!


Top
 Profile E-mail  
 
Display posts from previous:  Sort by  
Post new topic Reply to topic  [ 10 posts ] 

All times are UTC + 3 hours


Who is online

Users browsing this forum: No registered users and 2 guests


You cannot post new topics in this forum
You cannot reply to topics in this forum
You cannot edit your posts in this forum
You cannot delete your posts in this forum
You cannot post attachments in this forum

Search for:
Яндекс.Метрика
Powered by phpBB © 2000, 2002, 2005, 2007 phpBB Group