\m/ 80's metal \m/

Информационно-аналитический форум "80 см пыли" (In Search We Trust) "У нас никто никуда не спешит"
Me For You - http://me-4u.com
It is currently 16 Oct 2019

All times are UTC + 3 hours

Spoiler
Chat - temporary registration for foreign users (please leave your application here)







Post new topic Reply to topic  [ 7 posts ] 
Author Message
 
PostPosted: 28 Jul 2012 
Работнечег
User avatar
Joined: 28 Aug 2007
Posts: 6028
Lоcаtion: г. Москва
Age: 30
Name: Дима
Image

Band: Art Of Fear
Album: Facing Hell
Label: Self-released
Genre: Power Metal
Country: Austria
Format: Flac + Log + Cue + Covers
Size: 331 Mb

Line-Up:
Thomas Metzler - Guitars (Mortician)
Joe Künz - Drums
Johannes Leierer - Bass (Divine Temptation, Siegfried)
Thomas Cassan - Vocals


Tracklist:
1. In The Line of Fire 04:32
2. Betray 04:53
3. Hellhound 04:55
4. Dust To Dust 03:51
5. Turn To Stone 04:18
6. Jaded Rebel 03:56
7. Easy Prey 05:12
8. Perfect Puppet 03:36
9. Liar 04:18
10. Ascend Your Throne 03:05

LOG
Exact Audio Copy V0.99 prebeta 5 from 4. May 2009

EAC extraction logfile from 14. July 2012, 14:39

Art Of Fear/ Facing Hell

Used drive : PIONEER DVD-RW DVR-116D Adapter: 0 ID: 0

Read mode : Secure
Utilize accurate stream : Yes
Defeat audio cache : Yes
Make use of C2 pointers : No

Read offset correction : 96
Overread into Lead-In and Lead-Out : No
Fill up missing offset samples with silence : Yes
Delete leading and trailing silent blocks : No
Null samples used in CRC calculations : Yes
Used interface : Native Win32 interface for Win NT & 2000

Used output format : User Defined Encoder
Selected bitrate : 32 kBit/s
Quality : High
Add ID3 tag : No
Command line compressor : C:\Program Files\Exact Audio Copy\Flac\flac.exe
Additional command line options : -6 -V %s


TOC of the extracted CD

Track | Start | Length | Start sector | End sector
---------------------------------------------------------
1 | 0:00.00 | 4:32.42 | 0 | 20441
2 | 4:32.42 | 4:53.69 | 20442 | 42485
3 | 9:26.36 | 4:55.61 | 42486 | 64671
4 | 14:22.22 | 3:51.12 | 64672 | 82008
5 | 18:13.34 | 4:18.04 | 82009 | 101362
6 | 22:31.38 | 3:56.09 | 101363 | 119071
7 | 26:27.47 | 5:12.26 | 119072 | 142497
8 | 31:39.73 | 3:36.65 | 142498 | 158762
9 | 35:16.63 | 4:18.48 | 158763 | 178160
10 | 39:35.36 | 3:05.60 | 178161 | 192095


Range status and errors

Selected range

Filename D:\Музыка\Lossless\Art Of Fear - Facing Hell (2007)\Art Of Fear - Facing Hell.wav

Peak level 100.0 %
Range quality 100.0 %
Copy CRC EED106AA
Copy OK

No errors occurred


AccurateRip summary

Track 1 not present in database
Track 2 not present in database
Track 3 not present in database
Track 4 not present in database
Track 5 not present in database
Track 6 not present in database
Track 7 not present in database
Track 8 not present in database
Track 9 not present in database
Track 10 not present in database

None of the tracks are present in the AccurateRip database

End of status report

CUE
REM GENRE "Power Metal"
REM DATE 2007
REM DISCID 900A010A
REM COMMENT "ExactAudioCopy v0.99pb5"
PERFORMER "Art Of Fear"
TITLE "Facing Hell"
FILE "Art Of Fear - Facing Hell.flac" WAVE
TRACK 01 AUDIO
TITLE "In The Line Of Fire"
PERFORMER "Art Of Fear"
FLAGS DCP
INDEX 01 00:00:00
TRACK 02 AUDIO
TITLE "Betray"
PERFORMER "Art Of Fear"
FLAGS DCP
INDEX 01 04:32:42
TRACK 03 AUDIO
TITLE "Hellhound"
PERFORMER "Art Of Fear"
FLAGS DCP
INDEX 01 09:26:36
TRACK 04 AUDIO
TITLE "Dust To Dust"
PERFORMER "Art Of Fear"
FLAGS DCP
INDEX 01 14:22:22
TRACK 05 AUDIO
TITLE "Turn To Stone"
PERFORMER "Art Of Fear"
FLAGS DCP
INDEX 01 18:13:34
TRACK 06 AUDIO
TITLE "Jaded Rebel"
PERFORMER "Art Of Fear"
FLAGS DCP
INDEX 01 22:31:38
TRACK 07 AUDIO
TITLE "Easy Prey"
PERFORMER "Art Of Fear"
FLAGS DCP
INDEX 01 26:27:47
TRACK 08 AUDIO
TITLE "Perfect Puppet"
PERFORMER "Art Of Fear"
FLAGS DCP
INDEX 01 31:39:73
TRACK 09 AUDIO
TITLE "Liar"
PERFORMER "Art Of Fear"
FLAGS DCP
INDEX 01 35:16:63
TRACK 10 AUDIO
TITLE "Ascend Your Throne"
PERFORMER "Art Of Fear"
FLAGS DCP
INDEX 01 39:35:36


Narod.Ru

Порадовал альбом, несмотря на то, что по сравнению с первым музыка стала на порядок мягче, но далеко не сопливой. Хриплый вокал, чуть выше, чем среднетемповые мелодии. Вообщем приличный альбом, мне понравилось.
P.S. Почему-то при рипе назвал группу Art Of War :fingal: В данном топике лог и куй правильные, поменяйте пожалуйста сами, не хочется из-за этого весь файл перезаливать :dash:


Top
 Profile E-mail  
 
 
PostPosted: 28 Jul 2012 
Хиппей (support team)
User avatar
Joined: 30 Jul 2007
Posts: 114839
Lоcаtion: Киев (Kyiv, UA)
Age: 46
Name: Andrey
:thanx:

_________________


Top
 Profile E-mail  
 
 
PostPosted: 29 Jul 2012 
Прокъмитолист
User avatar
Joined: 12 Aug 2007
Posts: 6623
Lоcаtion: Санктъ-Петербуркъ
Age: 51
Name: Олекъ
Димка, спасибо :thanx:

_________________
прокъметол - это музыко, от которово есть прок (ы)


Top
 Profile  
 
 
PostPosted: 29 Jul 2012 
Хиппей (support team)
User avatar
Joined: 30 Jul 2007
Posts: 114839
Lоcаtion: Киев (Kyiv, UA)
Age: 46
Name: Andrey
church wrote:
P.S. Почему-то при рипе назвал группу Art Of War :fingal:

Так явно ж в тот момент в эту игруху шпилил :crazy:

_________________


Top
 Profile E-mail  
 
 
PostPosted: 29 Jul 2012 
Power Metal Maniac
User avatar
Joined: 09 Aug 2008
Posts: 6908
Lоcаtion: Москва
Age: 41
Name: Егор
:thanx:

_________________
Long Live Metal!


Top
 Profile  
 
 
PostPosted: 30 Jul 2012 
ТрэшЭрос
User avatar
Joined: 18 Jul 2011
Posts: 2305
Lоcаtion: Гулькевичи
Age: 44
Name: Александр
church, :thanx:
Заберу в стадо коллекцию!

_________________
Thrash no trash!!!


Top
 Profile E-mail  
 
 
PostPosted: 07 Jan 2013 
Труъ
User avatar
Joined: 05 Oct 2008
Posts: 194
Lоcаtion: Saint Petersburg
Age: 46
Name: Jesse
Благодарствую! ТОже заберу


Top
 Profile  
 
Display posts from previous:  Sort by  
Post new topic Reply to topic  [ 7 posts ] 

All times are UTC + 3 hours


Who is online

Users browsing this forum: No registered users and 1 guest


You cannot post new topics in this forum
You cannot reply to topics in this forum
You cannot edit your posts in this forum
You cannot delete your posts in this forum
You cannot post attachments in this forum

Search for:
Яндекс.Метрика
Powered by phpBB © 2000, 2002, 2005, 2007 phpBB Group