\m/ 80's metal \m/

Информационно-аналитический форум "80 см пыли" (In Search We Trust) "У нас никто никуда не спешит"
Me For You - http://me-4u.com
It is currently 20 Oct 2019

All times are UTC + 3 hours

Spoiler
Chat - temporary registration for foreign users (please leave your application here)







Post new topic Reply to topic  [ 3 posts ] 
Author Message
 
PostPosted: 11 Jul 2012 
Хиппей (support team)
User avatar
Joined: 30 Jul 2007
Posts: 114953
Lоcаtion: Киев (Kyiv, UA)
Age: 46
Name: Andrey
Abomination - 1991 - Tragedy Strikes (Re-released 2008 Metal Mind Prods.) [flac]

Image

Genre: Thrashcore (Thrash Metal, Hardcore, Crossover, Death Metal)
Location: USA
Format: flac + cue +log + no scans
Size: 389 Mb


Line-up:

Paul Speckmann - vocals, bass
Aaron Nickeas - drums
Dean Chioles (R.I.P. 2001) - guitars

1. Blood for Oil - 06:18
2. They're Dead - 05:30
3. Pull the Plug - 03:16
4. Will They Bleed - 05:14
5. Industrial Sickness - 04:55
6. Soldier - 04:51
7. Kill or Be Killed (instrumental) - 04:29
8. Oppression - 05:08
9. The Face in the Crowd (bonus) - 04:26
10. I'm Still Free (bonus) - 05:10
11. Take a Sip of Power (bonus) - 02:20
12. Man Created God (bonus) - 02:46

TPT: 54:25

MultiUp l Narod

Истоничк: откута-то спёр :vic: Опознавайте автора рипа по логу :dance:

Классический и лучший альбом группы Пола Спекманна, добитый 4-мя бонусами.
Музыка с непривычки может быть воспринята не просто. Но после нескольких прослушиваний хардкоровое и сбивчато-мелодичное удовольствие гарантировано. Подобного вы не услышите больше...

6+/10

Но... мне дебютник все же нравится больше, ибо его слушал намного чаще и знаю наизусть всю лирику и каждый проигрыш :pardon:

Более полная и свежая дискография группы находится здесь :arrow: http://rutracker.org/forum/viewtopic.php?t=4086528

log
Exact Audio Copy V0.99 prebeta 5 from 4. May 2009

EAC extraction logfile from 26. May 2012, 19:09

ABOMINATION / Tragedy Strikes

Used drive : Optiarc DVD RW AD-7243S Adapter: 4 ID: 1

Read mode : Secure
Utilize accurate stream : Yes
Defeat audio cache : Yes
Make use of C2 pointers : No

Read offset correction : 48
Overread into Lead-In and Lead-Out : No
Fill up missing offset samples with silence : Yes
Delete leading and trailing silent blocks : No
Null samples used in CRC calculations : Yes
Used interface : Installed external ASPI interface

Used output format : User Defined Encoder
Selected bitrate : 40 kBit/s
Quality : High
Add ID3 tag : Yes
Command line compressor : C:\Program Files (x86)\Exact Audio Copy\FLAC.EXE
Additional command line options : -6 -V %s


TOC of the extracted CD

Track | Start | Length | Start sector | End sector
---------------------------------------------------------
1 | 0:00.00 | 6:18.22 | 0 | 28371
2 | 6:18.22 | 5:29.38 | 28372 | 53084
3 | 11:47.60 | 3:16.25 | 53085 | 67809
4 | 15:04.10 | 5:13.11 | 67810 | 91295
5 | 20:17.21 | 4:55.19 | 91296 | 113439
6 | 25:12.40 | 4:50.61 | 113440 | 135250
7 | 30:03.26 | 4:29.14 | 135251 | 155439
8 | 34:32.40 | 5:08.13 | 155440 | 178552
9 | 39:40.53 | 4:26.47 | 178553 | 198549
10 | 44:07.25 | 5:10.30 | 198550 | 221829
11 | 49:17.55 | 2:20.42 | 221830 | 232371
12 | 51:38.22 | 2:46.65 | 232372 | 244886


Range status and errors

Selected range

Filename E:\Mule\ABOMINATION - Tragedy Strikes.flac\ABOMINATION - Tragedy Strikes.wav

Peak level 98.9 %
Range quality 99.9 %
Copy CRC 028D33E4
Copy OK

No errors occurred


AccurateRip summary

Track 1 accurately ripped (confidence 2) [28465270]
Track 2 accurately ripped (confidence 2) [2768262E]
Track 3 accurately ripped (confidence 2) [498FD9F8]
Track 4 accurately ripped (confidence 2) [92AFA3C2]
Track 5 accurately ripped (confidence 2) [BB8AB4AB]
Track 6 accurately ripped (confidence 2) [CC23300A]
Track 7 accurately ripped (confidence 2) [75828162]
Track 8 not present in database
Track 9 accurately ripped (confidence 2) [03DB053A]
Track 10 accurately ripped (confidence 2) [10DCBBD2]
Track 11 accurately ripped (confidence 2) [F5631971]
Track 12 accurately ripped (confidence 2) [68E53374]

11 track(s) accurately ripped
1 track(s) not present in the AccurateRip database

Some tracks could not be verified as accurate

End of status report

cue
REM DATE 1991
REM DISCID A00CC10C
REM COMMENT "ExactAudioCopy v0.99pb5"
PERFORMER "ABOMINATION"
TITLE "Tragedy Strikes"
FILE "ABOMINATION - Tragedy Strikes.flac" WAVE
TRACK 01 AUDIO
TITLE " blood for oIl"
PERFORMER "ABOMINATION"
INDEX 01 00:00:00
TRACK 02 AUDIO
TITLE " they're dead"
PERFORMER "ABOMINATION"
INDEX 01 06:18:22
TRACK 03 AUDIO
TITLE " pull the plug"
PERFORMER "ABOMINATION"
INDEX 01 11:47:60
TRACK 04 AUDIO
TITLE " will they bleed"
PERFORMER "ABOMINATION"
INDEX 01 15:04:10
TRACK 05 AUDIO
TITLE "industrial sickness"
PERFORMER "ABOMINATION"
INDEX 01 20:17:21
TRACK 06 AUDIO
TITLE " soldier"
PERFORMER "ABOMINATION"
INDEX 01 25:12:40
TRACK 07 AUDIO
TITLE "kill or be killed"
PERFORMER "ABOMINATION"
INDEX 01 30:03:26
TRACK 08 AUDIO
TITLE " oppression"
PERFORMER "ABOMINATION"
INDEX 01 34:32:40
TRACK 09 AUDIO
TITLE " face in the crowd (bonus track)"
PERFORMER "ABOMINATION"
INDEX 01 39:40:53
TRACK 10 AUDIO
TITLE "i'm still free (bonus track)"
PERFORMER "ABOMINATION"
INDEX 01 44:07:25
TRACK 11 AUDIO
TITLE " take a sip of power (bonus track)"
PERFORMER "ABOMINATION"
INDEX 01 49:17:55
TRACK 12 AUDIO
TITLE " man created god (bonus track)"
PERFORMER "ABOMINATION"
INDEX 01 51:38:22

spectrum
Image

_________________


Top
 Profile E-mail  
 
 
PostPosted: 11 Jul 2012 
Доктор энтомологии
User avatar
Joined: 22 Jan 2009
Posts: 9927
Lоcаtion: Даугавпилс
Age: 44
Name: Алексей
Никогда не понимал этот ансамбель, он меня ране очень д.же угнетал, а иногда вызывал нечто вроде такой асфиксозной тошноты... (врочем - давно это было :vic: ) :dash: .. боле нравятся проекты Спекмана - Master и Deathstrike, особенно последний с миником про факин смерть :true:


Top
 Profile  
 
 
PostPosted: 11 Jul 2012 
Хиппей (support team)
User avatar
Joined: 30 Jul 2007
Posts: 114953
Lоcаtion: Киев (Kyiv, UA)
Age: 46
Name: Andrey
Entomologist wrote:
Master

Мастер тож самое, что и Абоминейшен, только более прямолинейное :pardon:

_________________


Top
 Profile E-mail  
 
Display posts from previous:  Sort by  
Post new topic Reply to topic  [ 3 posts ] 

All times are UTC + 3 hours


Who is online

Users browsing this forum: No registered users and 2 guests


You cannot post new topics in this forum
You cannot reply to topics in this forum
You cannot edit your posts in this forum
You cannot delete your posts in this forum
You cannot post attachments in this forum

Search for:
Яндекс.Метрика
Powered by phpBB © 2000, 2002, 2005, 2007 phpBB Group