\m/ 80's metal \m/

Информационно-аналитический форум "80 см пыли" (In Search We Trust) "У нас никто никуда не спешит"
Me For You - http://me-4u.com
It is currently 16 Oct 2019

All times are UTC + 3 hours

Spoiler
Chat - temporary registration for foreign users (please leave your application here)







Post new topic Reply to topic  [ 15 posts ] 
Author Message
 
PostPosted: 11 Jun 2012 
Я набрал 1000 сообщений!
Joined: 24 Oct 2009
Posts: 2271
Lоcаtion: Оренбург
Age: 56
Name: Юра
Image

Год: 1991
Стиль: Thrash Metal
Страна: Finland
Формат: FLAC (image+cue)+Log+Covers
Размер: 411МБ

Состав:

Juha Laine: Vocals
Tommy Dolivo: Guitars
Roope Siren: Guitars
Kirka Sainio: Bass
Yka: Drums

Треклист:

1. Liquid Bliss
2. Hollow Men
3. Savage Ritual
4. So It Goes
5. Soul of a Renegade
6. Silent Wall
7. Deeper Shades
8. Letter of Indulgence
9. Choking Child
10. View

LOG
Exact Audio Copy V0.99 prebeta 5 from 4. May 2009

EAC extraction logfile from 26. January 2012, 13:56

Airdash / Both Ends Of The Path

Used drive : Optiarc DVD+-RW AD-7717H Adapter: 0 ID: 2

Read mode : Secure
Utilize accurate stream : Yes
Defeat audio cache : Yes
Make use of C2 pointers : No

Read offset correction : 48
Overread into Lead-In and Lead-Out : Yes
Fill up missing offset samples with silence : Yes
Delete leading and trailing silent blocks : No
Null samples used in CRC calculations : No
Used interface : Native Win32 interface for Win NT & 2000

Used output format : Internal WAV Routines
Sample format : 44.100 Hz; 16 Bit; Stereo


TOC of the extracted CD

Track | Start | Length | Start sector | End sector
---------------------------------------------------------
1 | 0:00.00 | 5:05.15 | 0 | 22889
2 | 5:05.15 | 4:00.50 | 22890 | 40939
3 | 9:05.65 | 5:48.65 | 40940 | 67104
4 | 14:54.55 | 3:29.62 | 67105 | 82841
5 | 18:24.42 | 4:16.33 | 82842 | 102074
6 | 22:41.00 | 4:58.70 | 102075 | 124494
7 | 27:39.70 | 5:05.12 | 124495 | 147381
8 | 32:45.07 | 3:43.60 | 147382 | 164166
9 | 36:28.67 | 3:37.68 | 164167 | 180509
10 | 40:06.60 | 5:04.62 | 180510 | 203371
11 | 45:11.47 | 3:53.30 | 203372 | 220876
12 | 49:05.02 | 2:58.33 | 220877 | 234259
13 | 52:03.35 | 2:39.45 | 234260 | 246229


Range status and errors

Selected range

Filename D:\MUSIC\на ФЛЭШКУ\1FLAC\Airdash - Both Ends Of The Path (1991)\Airdash - Both Ends Of The Path.wav

Suspicious position 0:54:42

Peak level 97.7 %
Range quality 99.9 %
Copy CRC E70C2B6B
Copy finished

There were errors


AccurateRip summary

Track 1 cannot be verified as accurate (confidence 5) [8918FF1C], AccurateRip returned [8B3D89B9]
Track 2 cannot be verified as accurate (confidence 5) [93ACE573], AccurateRip returned [D495DB41]
Track 3 cannot be verified as accurate (confidence 5) [338D9FE8], AccurateRip returned [20F71971]
Track 4 cannot be verified as accurate (confidence 5) [1B87997A], AccurateRip returned [85B8F36C]
Track 5 cannot be verified as accurate (confidence 5) [2B9934DE], AccurateRip returned [7F3E78B0]
Track 6 cannot be verified as accurate (confidence 5) [01BD844E], AccurateRip returned [1C472C1F]
Track 7 cannot be verified as accurate (confidence 5) [D33B5283], AccurateRip returned [99390D9E]
Track 8 cannot be verified as accurate (confidence 5) [B822E511], AccurateRip returned [7D06E279]
Track 9 cannot be verified as accurate (confidence 5) [D6B5603A], AccurateRip returned [E0FE09B9]
Track 10 cannot be verified as accurate (confidence 4) [E9DDA769], AccurateRip returned [2879774E]
Track 11 cannot be verified as accurate (confidence 5) [AC52A993], AccurateRip returned [934227F1]
Track 12 cannot be verified as accurate (confidence 5) [17249C38], AccurateRip returned [11C46D2A]
Track 13 cannot be verified as accurate (confidence 5) [10E0AEE6], AccurateRip returned [7A0A0D91]

No tracks could be verified as accurate

End of status report


CUE
REM GENRE "Thrash Metal"
REM DATE 1991
REM DISCID B50CD30D
REM COMMENT "ExactAudioCopy v0.99pb5"
PERFORMER "Airdash"
TITLE "Both Ends Of The Path"
FILE "Airdash - Both Ends Of The Path.flac" WAVE
TRACK 01 AUDIO
TITLE "Liquid Bliss"
PERFORMER "Airdash"
FLAGS DCP
INDEX 01 00:00:00
TRACK 02 AUDIO
TITLE "Hollow Men"
PERFORMER "Airdash"
FLAGS DCP
INDEX 01 05:05:15
TRACK 03 AUDIO
TITLE "Savage Ritual"
PERFORMER "Airdash"
FLAGS DCP
INDEX 01 09:05:65
TRACK 04 AUDIO
TITLE "So It Goes"
PERFORMER "Airdash"
FLAGS DCP
INDEX 01 14:54:55
TRACK 05 AUDIO
TITLE "Soul Of A Renegade"
PERFORMER "Airdash"
FLAGS DCP
INDEX 01 18:24:42
TRACK 06 AUDIO
TITLE "Silent Wall"
PERFORMER "Airdash"
FLAGS DCP
INDEX 01 22:41:00
TRACK 07 AUDIO
TITLE "Deeper Shades"
PERFORMER "Airdash"
FLAGS DCP
INDEX 01 27:39:70
TRACK 08 AUDIO
TITLE "Letter Of Indulgence"
PERFORMER "Airdash"
FLAGS DCP
INDEX 01 32:45:07
TRACK 09 AUDIO
TITLE "Choking Child"
PERFORMER "Airdash"
FLAGS DCP
INDEX 01 36:28:67
TRACK 10 AUDIO
TITLE "View"
PERFORMER "Airdash"
FLAGS DCP
INDEX 01 40:06:60
TRACK 11 AUDIO
TITLE "Take A Look At Me"
PERFORMER "Airdash"
FLAGS DCP
INDEX 01 45:11:47
TRACK 12 AUDIO
TITLE "Got No Blues"
PERFORMER "Airdash"
FLAGS DCP
INDEX 01 49:05:02
TRACK 13 AUDIO
TITLE "Eat Shit '91"
PERFORMER "Airdash"
FLAGS DCP
INDEX 01 52:03:35


Narod

И опять Спасибо => Олежки (rockempire)!

_________________
:dash: I am happy!


Top
 Profile E-mail  
 
 
PostPosted: 11 Jun 2012 
Хиппей (support team)
User avatar
Joined: 30 Jul 2007
Posts: 114840
Lоcаtion: Киев (Kyiv, UA)
Age: 46
Name: Andrey
:thanx:

mirror: MultiUp l Narod

_________________


Top
 Profile E-mail  
 
 
PostPosted: 11 Jun 2012 
Хиппей (support team)
User avatar
Joined: 30 Jul 2007
Posts: 114840
Lоcаtion: Киев (Kyiv, UA)
Age: 46
Name: Andrey
uriyy wrote:
И опять Спасибо => Олежки (rockempire)!

Юр, на самом деле правильно будет - Олежке :oops:

_________________


Top
 Profile E-mail  
 
 
PostPosted: 11 Jun 2012 
Я набрал 1000 сообщений!
Joined: 24 Oct 2009
Posts: 2271
Lоcаtion: Оренбург
Age: 56
Name: Юра
А эт, я от ласкательного Олежик отталкивалси... :benya:
(прошу дурных мыслей в голове, не держать...)

_________________
:dash: I am happy!


Top
 Profile E-mail  
 
 
PostPosted: 11 Jun 2012 
Доктор энтомологии
User avatar
Joined: 22 Jan 2009
Posts: 9925
Lоcаtion: Даугавпилс
Age: 44
Name: Алексей
не знаю нахрена но скачал флак. Спасибо :thanx: Банда - достойная :true:


Top
 Profile  
 
 
PostPosted: 12 Jun 2012 
Хиппей (support team)
User avatar
Joined: 30 Jul 2007
Posts: 114840
Lоcаtion: Киев (Kyiv, UA)
Age: 46
Name: Andrey
Entomologist wrote:
Банда - достойная :true:

Более чем. Особенно этот альбом - технотрэшак очень красивый. Хотя с первого разу вроде и ничего особенного, но цепляет :meloman:

_________________


Top
 Profile E-mail  
 
 
PostPosted: 13 Jun 2012 
Power Metal Maniac
User avatar
Joined: 09 Aug 2008
Posts: 6908
Lоcаtion: Москва
Age: 41
Name: Егор
унылейший и совершенно блеклый Thrash. Один из худших немодерновых, что я слышал

_________________
Long Live Metal!


Top
 Profile  
 
 
PostPosted: 13 Jun 2012 
Персональный статус
Joined: 19 Jul 2010
Posts: 282
Lоcаtion: Москва
Name: Вадим
Согласен, вообще ни о чём... :-((


Top
 Profile E-mail  
 
 
PostPosted: 14 Jun 2012 
Хиппей (support team)
User avatar
Joined: 30 Jul 2007
Posts: 114840
Lоcаtion: Киев (Kyiv, UA)
Age: 46
Name: Andrey
Ого, от Егора такого резюме не ожидал :crazy:

_________________


Top
 Profile E-mail  
 
 
PostPosted: 14 Jun 2012 
Power Metal Maniac
User avatar
Joined: 09 Aug 2008
Posts: 6908
Lоcаtion: Москва
Age: 41
Name: Егор
Техно-Трэш должен быть насыщенным и навороченным с каскадом разных мелодий, сменой ритмов, настроений и темпа. Тут такого и в помине нет. Альбом не зацепил ничем, вызвав лишь раздражение во время прослушивания за бездарно потраченное время.

_________________
Long Live Metal!


Top
 Profile  
 
 
PostPosted: 13 Oct 2012 
Работнечег
User avatar
Joined: 28 Aug 2007
Posts: 6028
Lоcаtion: г. Москва
Age: 30
Name: Дима
А это с оригиналов рипы или с пиратки, никто не в курсе?


Top
 Profile E-mail  
 
 
PostPosted: 21 Oct 2012 
Прокъмитолист
User avatar
Joined: 12 Aug 2007
Posts: 6623
Lоcаtion: Санктъ-Петербуркъ
Age: 51
Name: Олекъ
church wrote:
никто не в курсе?

в курсе. с пиратки. у меня такая же. и если мы говорим о рипе, а не о диске, то разницы сопсна никакой ;)

_________________
прокъметол - это музыко, от которово есть прок (ы)


Top
 Profile  
 
 
PostPosted: 25 Nov 2012 
Работнечег
User avatar
Joined: 28 Aug 2007
Posts: 6028
Lоcаtion: г. Москва
Age: 30
Name: Дима
согласен) просто так спросил ;)


Top
 Profile E-mail  
 
 
PostPosted: 31 Jul 2013 
Хиппей (support team)
User avatar
Joined: 30 Jul 2007
Posts: 114840
Lоcаtion: Киев (Kyiv, UA)
Age: 46
Name: Andrey
EG Power wrote:
Техно-Трэш должен быть насыщенным и навороченным с каскадом разных мелодий, сменой ритмов, настроений и темпа.

Ээм.... Егор, Металлика-88 под это определение подходит? Например :vic:
Явно ж нет, а цепляет :meloman:

_________________


Top
 Profile E-mail  
 
 
PostPosted: 31 Jul 2013 
Power Metal Maniac
User avatar
Joined: 09 Aug 2008
Posts: 6908
Lоcаtion: Москва
Age: 41
Name: Егор
Да, как раз Металлика'88 не полностью под это определение подходит. Да, там есть рваные ритмы и смены настроений, но часто композиции неимоверно затянуты и одна и та же тема может по много раз звучать на протяжении одной песни. Так что, лишь элементы Techno-Thrash я там слышу, а по сравнению с альбомами Deathrow, Sieges Even или Mekong Delta того же года Метла смотрится весьма примитивно.
"Justice", конечно, местами цепляет, но местами зануден.

_________________
Long Live Metal!


Top
 Profile  
 
Display posts from previous:  Sort by  
Post new topic Reply to topic  [ 15 posts ] 

All times are UTC + 3 hours


Who is online

Users browsing this forum: No registered users and 2 guests


You cannot post new topics in this forum
You cannot reply to topics in this forum
You cannot edit your posts in this forum
You cannot delete your posts in this forum
You cannot post attachments in this forum

Search for:
Яндекс.Метрика
Powered by phpBB © 2000, 2002, 2005, 2007 phpBB Group