\m/ 80's metal \m/

Информационно-аналитический форум "80 см пыли" (In Search We Trust) "У нас никто никуда не спешит"
Me For You - http://me-4u.com
It is currently 19 Oct 2019

All times are UTC + 3 hours

Spoiler
Chat - temporary registration for foreign users (please leave your application here)







Post new topic Reply to topic  [ 3 posts ] 
Author Message
 
PostPosted: 08 Jun 2012 
Я набрал 1000 сообщений!
Joined: 24 Oct 2009
Posts: 2276
Lоcаtion: Оренбург
Age: 56
Name: Юра
Image

Год: 1989
Стиль: Thrash Metal
Страна: Finland
Формат: FLAC (image+cue)+Log+Covers
Размер: 326МБ

Состав:

Ykä: Drums
Roope Sirén: Guitars
Nirri: Lead Guitars
Kirka Sainio: Bass
Junnu: Vocals

Треклист:

1. If...
2. Youth Hostel (Burial Site)
3. Jungle Jim
4. Decent Citizen
5. Vengeance Through Violence (No Bullshit)
6. Trigger Happy
7. Forbidden Thoughts
8. Sleepwalk
9. Thank God It's Monday

LOG
Exact Audio Copy V0.99 prebeta 5 from 4. May 2009

EAC extraction logfile from 25. January 2012, 22:15

Airdash / Hospital Hallucination Take One

Used drive : Optiarc DVD+-RW AD-7717H Adapter: 0 ID: 2

Read mode : Secure
Utilize accurate stream : Yes
Defeat audio cache : Yes
Make use of C2 pointers : No

Read offset correction : 48
Overread into Lead-In and Lead-Out : Yes
Fill up missing offset samples with silence : Yes
Delete leading and trailing silent blocks : No
Null samples used in CRC calculations : No
Used interface : Native Win32 interface for Win NT & 2000

Used output format : Internal WAV Routines
Sample format : 44.100 Hz; 16 Bit; Stereo


TOC of the extracted CD

Track | Start | Length | Start sector | End sector
---------------------------------------------------------
1 | 0:00.32 | 4:13.25 | 32 | 19031
2 | 4:13.57 | 4:21.00 | 19032 | 38606
3 | 8:34.57 | 6:50.43 | 38607 | 69399
4 | 15:25.25 | 4:05.32 | 69400 | 87806
5 | 19:30.57 | 5:32.13 | 87807 | 112719
6 | 25:02.70 | 4:39.70 | 112720 | 133714
7 | 29:42.65 | 5:33.47 | 133715 | 158736
8 | 35:16.37 | 4:59.53 | 158737 | 181214
9 | 40:16.15 | 4:08.37 | 181215 | 199851


Range status and errors

Selected range

Filename D:\MUSIC\на ФЛЭШКУ\1FLAC\Airdash - Hospital Hallucination Take One (1990)\Airdash - Hospital Hallucination Take One.wav

Peak level 100.0 %
Range quality 100.0 %
Copy CRC 38F8DA20
Copy OK

No errors occurred


AccurateRip summary

Track 1 cannot be verified as accurate (confidence 1) [C46B0735], AccurateRip returned [55250CF1]
Track 2 cannot be verified as accurate (confidence 1) [EAD353F2], AccurateRip returned [403CD67E]
Track 3 cannot be verified as accurate (confidence 1) [113BAED7], AccurateRip returned [B8698D7B]
Track 4 cannot be verified as accurate (confidence 1) [B54DC0F7], AccurateRip returned [591BA997]
Track 5 cannot be verified as accurate (confidence 1) [6E3876D7], AccurateRip returned [071D0DB3]
Track 6 cannot be verified as accurate (confidence 1) [06958A25], AccurateRip returned [D673003D]
Track 7 cannot be verified as accurate (confidence 1) [A5C937DA], AccurateRip returned [3A9AFECA]
Track 8 cannot be verified as accurate (confidence 1) [7F3FC830], AccurateRip returned [9C19BE0C]
Track 9 cannot be verified as accurate (confidence 1) [65B43F19], AccurateRip returned [3D4F1119]

No tracks could be verified as accurate
You may have a different pressing from the one(s) in the database

End of status report


CUE
REM GENRE "Trash Metal"
REM DATE 1990
REM DISCID 700A6809
REM COMMENT "ExactAudioCopy v0.99pb5"
PERFORMER "Airdash"
TITLE "Hospital Hallucination Take One"
FILE "Airdash - Hospital Hallucination Take One.flac" WAVE
TRACK 01 AUDIO
TITLE "If..."
PERFORMER "Airdash"
INDEX 00 00:00:00
INDEX 01 00:00:32
TRACK 02 AUDIO
TITLE "Youth Hostel"
PERFORMER "Airdash"
INDEX 01 04:13:57
TRACK 03 AUDIO
TITLE "Jungle Jim"
PERFORMER "Airdash"
INDEX 01 08:34:57
TRACK 04 AUDIO
TITLE "Decent Citizen"
PERFORMER "Airdash"
INDEX 01 15:25:25
TRACK 05 AUDIO
TITLE "Vengeance through Violence (No Bullshit)"
PERFORMER "Airdash"
INDEX 01 19:30:57
TRACK 06 AUDIO
TITLE "Trigger Happy"
PERFORMER "Airdash"
INDEX 01 25:02:70
TRACK 07 AUDIO
TITLE "Forbidden Thoughts"
PERFORMER "Airdash"
INDEX 01 29:42:65
TRACK 08 AUDIO
TITLE "Sleepwalk"
PERFORMER "Airdash"
INDEX 01 35:16:37
TRACK 09 AUDIO
TITLE "Thank God It's Monday"
PERFORMER "Airdash"
INDEX 01 40:16:15

spectrum
Image


http://fotki.yandex.ru/users/metalfight/view/496366/

http://narod.ru/disk/38952308001/Airdash%20-%20Hospital%20Hallucination%20Take%20One%20%281990%29.rar.html

Опять Спасибо => Олежки (rockempire)!

_________________
:dash: I am happy!


Top
 Profile E-mail  
 
 
PostPosted: 08 Jun 2012 
Генеральный thrasher
User avatar
Joined: 03 Oct 2008
Posts: 3741
Lоcаtion: Ханты-Мансийский АО
Age: 44
Name: Сергей
:thanx: :true: :losik:


Top
 Profile  
 
 
PostPosted: 10 Jun 2012 
Хиппей (support team)
User avatar
Joined: 30 Jul 2007
Posts: 114950
Lоcаtion: Киев (Kyiv, UA)
Age: 46
Name: Andrey
:thanx:

mirror: MultiUp l Narod

_________________


Top
 Profile E-mail  
 
Display posts from previous:  Sort by  
Post new topic Reply to topic  [ 3 posts ] 

All times are UTC + 3 hours


Who is online

Users browsing this forum: No registered users and 3 guests


You cannot post new topics in this forum
You cannot reply to topics in this forum
You cannot edit your posts in this forum
You cannot delete your posts in this forum
You cannot post attachments in this forum

Search for:
Яндекс.Метрика
Powered by phpBB © 2000, 2002, 2005, 2007 phpBB Group