\m/ 80's metal \m/

Информационно-аналитический форум "80 см пыли" (In Search We Trust) "У нас никто никуда не спешит"
Me For You - http://me-4u.com
It is currently 16 Oct 2019

All times are UTC + 3 hours

Spoiler
Chat - temporary registration for foreign users (please leave your application here)







Post new topic Reply to topic  [ 6 posts ] 
Author Message
 
PostPosted: 07 Jun 2012 
Я набрал 1000 сообщений!
Joined: 24 Oct 2009
Posts: 2271
Lоcаtion: Оренбург
Age: 56
Name: Юра
Image

Год: 1988
Стиль: Thrash Metal
Страна: Finland
Формат: FLAC (image+cue)+Log+Covers
Размер: 273МБ

Состав:

Ykä: Drums
Roope Sirén: Guitars
Nirri Guitars: Lead Guitars
Kirka Sainio: Bass
Junnu: Vocals

Треклист:

1. Give Up
2. Helluva Noise
3. Another Day
4. White Lies
5. Spit Your Guts
6. Without It
7. Reaper
8. Thank God It's Monday
9. Eat Shit

"LOG"
Exact Audio Copy V0.99 prebeta 5 from 4. May 2009

EAC extraction logfile from 26. January 2012, 14:25

Airdash / Thank God It's Monday

Used drive : Optiarc DVD+-RW AD-7717H Adapter: 0 ID: 2

Read mode : Secure
Utilize accurate stream : Yes
Defeat audio cache : Yes
Make use of C2 pointers : No

Read offset correction : 48
Overread into Lead-In and Lead-Out : Yes
Fill up missing offset samples with silence : Yes
Delete leading and trailing silent blocks : No
Null samples used in CRC calculations : No
Used interface : Native Win32 interface for Win NT & 2000

Used output format : Internal WAV Routines
Sample format : 44.100 Hz; 16 Bit; Stereo


TOC of the extracted CD

Track | Start | Length | Start sector | End sector
---------------------------------------------------------
1 | 0:00.37 | 4:03.38 | 37 | 18299
2 | 4:04.00 | 4:21.12 | 18300 | 37886
3 | 8:25.12 | 4:12.63 | 37887 | 56849
4 | 12:38.00 | 4:02.00 | 56850 | 74999
5 | 16:40.00 | 4:07.00 | 75000 | 93524
6 | 20:47.00 | 3:46.00 | 93525 | 110474
7 | 24:33.00 | 3:25.22 | 110475 | 125871
8 | 27:58.22 | 4:26.40 | 125872 | 145861
9 | 32:24.62 | 3:04.65 | 145862 | 159726


Range status and errors

Selected range

Filename D:\MUSIC\на ФЛЭШКУ\1FLAC\Airdash - Thank God It's Monday (1989)\Airdash - Thank God It's Monday.wav

Peak level 100.0 %
Range quality 100.0 %
Copy CRC 3C847D99
Copy OK

No errors occurred


AccurateRip summary

Track 1 cannot be verified as accurate (confidence 1) [A0DD366D], AccurateRip returned [E263EB9C]
Track 2 cannot be verified as accurate (confidence 1) [1FEB01B5], AccurateRip returned [69D1D759]
Track 3 cannot be verified as accurate (confidence 1) [56127749], AccurateRip returned [098503C5]
Track 4 cannot be verified as accurate (confidence 1) [AFB76845], AccurateRip returned [3AD8F439]
Track 5 cannot be verified as accurate (confidence 1) [E398C9C1], AccurateRip returned [D6B9F271]
Track 6 cannot be verified as accurate (confidence 1) [A511F14F], AccurateRip returned [8222B503]
Track 7 cannot be verified as accurate (confidence 1) [A3912A0A], AccurateRip returned [5AE87866]
Track 8 cannot be verified as accurate (confidence 1) [FF10F8B0], AccurateRip returned [7F0B5EC0]
Track 9 cannot be verified as accurate (confidence 1) [64566B70], AccurateRip returned [0527F728]

No tracks could be verified as accurate
You may have a different pressing from the one(s) in the database

End of status report


CUE
REM GENRE Metal
REM DATE 1989
REM DISCID 6E085109
REM COMMENT "ExactAudioCopy v0.99pb5"
PERFORMER "Airdash"
TITLE "Thank God It's Monday"
FILE "Airdash - Thank God It's Monday.flac" WAVE
TRACK 01 AUDIO
TITLE "Give Up"
PERFORMER "Airdash"
INDEX 00 00:00:00
INDEX 01 00:00:37
TRACK 02 AUDIO
TITLE "Helluva Noise"
PERFORMER "Airdash"
INDEX 01 04:04:00
TRACK 03 AUDIO
TITLE "Another Day"
PERFORMER "Airdash"
INDEX 01 08:25:12
TRACK 04 AUDIO
TITLE "White Lies"
PERFORMER "Airdash"
INDEX 01 12:38:00
TRACK 05 AUDIO
TITLE "Spit Your Guts"
PERFORMER "Airdash"
INDEX 01 16:40:00
TRACK 06 AUDIO
TITLE "Without It"
PERFORMER "Airdash"
INDEX 01 20:47:00
TRACK 07 AUDIO
TITLE "Reaper"
PERFORMER "Airdash"
INDEX 01 24:33:00
TRACK 08 AUDIO
TITLE "Thank God It's Monday"
PERFORMER "Airdash"
INDEX 01 27:58:22
TRACK 09 AUDIO
TITLE "Eat Shit"
PERFORMER "Airdash"
INDEX 01 32:24:62

spectrum
Image


http://narod.ru/disk/38954788001/Airdash%20-%20Thank%20God%20It%27s%20Monday%20%281989%29.rar.html

Благодарности => Олежки (rockempire)!

_________________
:dash: I am happy!


Last edited by uriyy on 08 Jun 2012, edited 2 times in total.

Top
 Profile E-mail  
 
 
PostPosted: 07 Jun 2012 
Хиппей (support team)
User avatar
Joined: 30 Jul 2007
Posts: 114839
Lоcаtion: Киев (Kyiv, UA)
Age: 46
Name: Andrey
:thanx:

mirror: MultiUp l Narod

Хотя, вроде бы и был у меня в лосике...
Альбом трушняковый ведь :true: Техно-трэшак солидный :meloman:
Единственное слабое звено - вокалист :pardon:

_________________


Top
 Profile E-mail  
 
 
PostPosted: 07 Jun 2012 
Я набрал 1000 сообщений!
Joined: 24 Oct 2009
Posts: 2271
Lоcаtion: Оренбург
Age: 56
Name: Юра
А ещё 89 и 91 есть, надо? :crazy:

_________________
:dash: I am happy!


Last edited by uriyy on 08 Jun 2012, edited 1 time in total.

Top
 Profile E-mail  
 
 
PostPosted: 07 Jun 2012 
Хиппей (support team)
User avatar
Joined: 30 Jul 2007
Posts: 114839
Lоcаtion: Киев (Kyiv, UA)
Age: 46
Name: Andrey
Юрка, а давай =)
Посмотрел - в Бухте не было вообще этой группы :vic:

_________________


Top
 Profile E-mail  
 
 
PostPosted: 08 Jun 2012 
ТрэшЭрос
User avatar
Joined: 18 Jul 2011
Posts: 2305
Lоcаtion: Гулькевичи
Age: 44
Name: Александр
...а ЙеПи "Vengeance Through Violence" 1989 буит? :oops:

_________________
Thrash no trash!!!


Top
 Profile E-mail  
 
 
PostPosted: 08 Jun 2012 
Я набрал 1000 сообщений!
Joined: 24 Oct 2009
Posts: 2271
Lоcаtion: Оренбург
Age: 56
Name: Юра
MetallicAS wrote:
...а ЙеПи "Vengeance Through Violence" 1989 буит? :oops:

Увы... Чаво нет... таво нетути. :pardon: Малость года подредактировал. :benya:

_________________
:dash: I am happy!


Top
 Profile E-mail  
 
Display posts from previous:  Sort by  
Post new topic Reply to topic  [ 6 posts ] 

All times are UTC + 3 hours


Who is online

Users browsing this forum: No registered users and 2 guests


You cannot post new topics in this forum
You cannot reply to topics in this forum
You cannot edit your posts in this forum
You cannot delete your posts in this forum
You cannot post attachments in this forum

Search for:
Яндекс.Метрика
cron
Powered by phpBB © 2000, 2002, 2005, 2007 phpBB Group