\m/ 80's metal \m/

Информационно-аналитический форум "80 см пыли" (In Search We Trust) "У нас никто никуда не спешит"
Me For You - http://me-4u.com
It is currently 19 Oct 2019

All times are UTC + 3 hours

Spoiler
Chat - temporary registration for foreign users (please leave your application here)







Post new topic Reply to topic  [ 13 posts ] 
Author Message
 
PostPosted: 06 Jun 2012 
адын фелософъ прокметолу
User avatar
Joined: 22 Oct 2009
Posts: 2789
Lоcаtion: Сочи
Age: 42
Name: Сергей
Alien on My Mind - Alien on My Mind (1997) [flac]
Image
Genre: Progressive Metal
Location: Germany
Format: flac+cue+log+scans
Size: 313 Mb

Line-up:
Ulf Grote - Bass
Olaf "Pelle" Hoffmeister - Drums
Kay Suhling - Guitars
Olaf Zimmermann - Guitars
Oliver Hintz - Keyboards
Michael Kinzel - Vocals

Tracklist:
1. Alien on My Mind
2. Watch the Sky
3. January
4. Life Is Eternal Morning
5. Across the Boarder
6. Elements
7. Mr. Poe
8. Unrequited Love

log
Отчёт EAC об извлечении, выполненном 2. июня 2012, 21:43 для диска:
Alien On My Mind / Alien On My Mind

Дисковод: Optiarc BD RW BD-5300S Adapter: 1 ID: 1
Режим чтения: Достоверный (C2: нет, Точный поток: да, Отключение кэша: да)
Коррекция смещения при чтении: 48
Способность читать области Lead-in и Lead-out : Нет

Выходной формат: Внутренние WAV-операции
44.100 Гц; 16 бит; стерео

Другие параметры:
Заполнение пропущенных сэмплов тишиной : Да
Удаление блоков с тишиной в начале и конце : Нет
Установленный внешний ASPI-интерфейс


Характеристики диапазона извлечения и сообщения об ошибках
Выбранный диапазон
Имя файла C:\Users\Сергей\Music\Alien On My Mind - Alien On My Mind.wav

Пиковый уровень 100.0 %
Качество диапазона 100.0 %
CRC 31B2822F
Копирование... OK

Ошибок не произошло

Конец отчёта


cue
REM GENRE "Progressive Rock"
REM DATE 1997
REM DISCID 7409C308
REM COMMENT "ExactAudioCopy v0.95b4"
PERFORMER "Alien On My Mind"
TITLE "Alien On My Mind"
FILE "Alien On My Mind - Alien On My Mind.wav" WAVE
TRACK 01 AUDIO
TITLE "Alien On My Mind"
PERFORMER "Alien On My Mind"
INDEX 01 00:00:00
TRACK 02 AUDIO
TITLE "Watch The Sky"
PERFORMER "Alien On My Mind"
INDEX 00 05:14:47
INDEX 01 05:16:47
TRACK 03 AUDIO
TITLE "January"
PERFORMER "Alien On My Mind"
INDEX 00 10:50:62
INDEX 01 10:52:62
TRACK 04 AUDIO
TITLE "Life Is Eternal Morning"
PERFORMER "Alien On My Mind"
INDEX 00 16:35:60
INDEX 01 16:37:60
TRACK 05 AUDIO
TITLE "Across The Roader"
PERFORMER "Alien On My Mind"
INDEX 00 20:28:55
INDEX 01 20:30:55
TRACK 06 AUDIO
TITLE "Elements"
PERFORMER "Alien On My Mind"
INDEX 00 27:03:55
INDEX 01 27:05:55
TRACK 07 AUDIO
TITLE "Mr.Poe"
PERFORMER "Alien On My Mind"
INDEX 00 32:05:55
INDEX 01 32:07:55
TRACK 08 AUDIO
TITLE "Undequited Love"
PERFORMER "Alien On My Mind"
INDEX 00 37:23:20
INDEX 01 37:25:20


Прочтите, перед тем как качать
народ

_________________
Я ненавижу гранж и альтернативную музыку


Top
 Profile E-mail  
 
 
PostPosted: 06 Jun 2012 
Прокъмитолист
User avatar
Joined: 12 Aug 2007
Posts: 6627
Lоcаtion: Санктъ-Петербуркъ
Age: 52
Name: Олекъ
спасибо, Серёга! :true: :thanx:

_________________
прокъметол - это музыко, от которово есть прок (ы)


Top
 Profile  
 
 
PostPosted: 06 Jun 2012 
хард н хэвщик (support team)
User avatar
Joined: 02 Jun 2008
Posts: 16881
Lоcаtion: Н.Новгород
Age: 32
Name: Артем
с ибэя заказывал ? :dance: а мп3 можно ? :oops:


Top
 Profile  
 
 
PostPosted: 06 Jun 2012 
адын фелософъ прокметолу
User avatar
Joined: 22 Oct 2009
Posts: 2789
Lоcаtion: Сочи
Age: 42
Name: Сергей
McKagan wrote:
с ибэя заказывал ?

да
McKagan wrote:
а мп3 можно ?

сделаю только вот сюда постить ?

_________________
Я ненавижу гранж и альтернативную музыку


Top
 Profile E-mail  
 
 
PostPosted: 06 Jun 2012 
хард н хэвщик (support team)
User avatar
Joined: 02 Jun 2008
Posts: 16881
Lоcаtion: Н.Новгород
Age: 32
Name: Артем
угу, можно сюда


Top
 Profile  
 
 
PostPosted: 06 Jun 2012 
адын фелософъ прокметолу
User avatar
Joined: 22 Oct 2009
Posts: 2789
Lоcаtion: Сочи
Age: 42
Name: Сергей
mp3 320kbps

_________________
Я ненавижу гранж и альтернативную музыку


Top
 Profile E-mail  
 
 
PostPosted: 06 Jun 2012 
хард н хэвщик (support team)
User avatar
Joined: 02 Jun 2008
Posts: 16881
Lоcаtion: Н.Новгород
Age: 32
Name: Артем
:thanx:


Top
 Profile  
 
 
PostPosted: 07 Jun 2012 
Power Metal Maniac
User avatar
Joined: 09 Aug 2008
Posts: 6923
Lоcаtion: Москва
Age: 41
Name: Егор
:thanx:

_________________
Long Live Metal!


Top
 Profile  
 
 
PostPosted: 08 Jun 2012 
Хиппей (support team)
User avatar
Joined: 30 Jul 2007
Posts: 114950
Lоcаtion: Киев (Kyiv, UA)
Age: 46
Name: Andrey
:thanx: :true:

mirror: MultiUp l Narod

_________________


Top
 Profile E-mail  
 
 
PostPosted: 11 Jun 2012 
Хиппей (support team)
User avatar
Joined: 30 Jul 2007
Posts: 114950
Lоcаtion: Киев (Kyiv, UA)
Age: 46
Name: Andrey
Очень понравился альбом :meloman:
Почти никакой нудятины и однообразности. Сразу выловил пятёрочку хитов. Остальные еще в стадии осмысления, но и они хороши.
Вот такой прог-мэтал меня очень радует :true:

7/10

_________________


Top
 Profile E-mail  
 
 
PostPosted: 24 Aug 2012 
труъ антисионист
User avatar
Joined: 01 Aug 2007
Posts: 4544
Lоcаtion: Откуда и большинство из нас
Age: 38
Name: Дядя Вова
Очень понравился альбом :meloman:
Почти никакой нудятины и однообразности. Сразу выловил пятёрочку хитов. Остальные еще в стадии осмысления, но и они хороши.
Вот такой прог-мэтал меня очень радует :true:

7/10


Если радует, то и я скачаю.

_________________
Image
Image


Top
 Profile  
 
 
PostPosted: 25 Aug 2012 
10cm
User avatar
Joined: 03 Aug 2012
Posts: 98
Lоcаtion: Украина Донецк
Age: 60
Name: Владимир
Спасибо большое!
И я заберу.

_________________
Когда мы все попадем в тюрьму за скачивание музыки, надеюсь нас рассадят по жанрам.


Top
 Profile E-mail  
 
 
PostPosted: 14 Sep 2012 
HAMMER
User avatar
Joined: 16 May 2009
Posts: 5488
Lоcаtion: Тверь
Age: 46
Name: Александр
Я вообще то к прогу равнодушен, ибо не понимаю его, но кое-что и мне понравилось. Особенно Watch the Sky и еще ничё так Unrequited Love .
:thanx:


Top
 Profile E-mail  
 
Display posts from previous:  Sort by  
Post new topic Reply to topic  [ 13 posts ] 

All times are UTC + 3 hours


Who is online

Users browsing this forum: No registered users and 2 guests


You cannot post new topics in this forum
You cannot reply to topics in this forum
You cannot edit your posts in this forum
You cannot delete your posts in this forum
You cannot post attachments in this forum

Search for:
Яндекс.Метрика
Powered by phpBB © 2000, 2002, 2005, 2007 phpBB Group