\m/ 80's metal \m/

Информационно-аналитический форум "80 см пыли" (In Search We Trust) "У нас никто никуда не спешит"
Me For You - http://me-4u.com
It is currently 17 Oct 2019

All times are UTC + 3 hours

Spoiler
Chat - temporary registration for foreign users (please leave your application here)







Post new topic Reply to topic  [ 46 posts ]  Go to page Previous  1, 2, 3
Author Message
 
PostPosted: 19 May 2012 
Персональный статус
Joined: 10 Mar 2009
Posts: 461
Lоcаtion: KYIV
Age: 40
Name: ROMAN
Accept - 1989 - Eat The Heat (Japanese issue) [flac]

Image

Genre: Heavy Metal
Location: Germany/USA
Format: flac + cue + log + no scans
Size: 424 Mb


Line-up:
David Reece - vocals
Wolf Hoffmann - guitars
Peter Baltes - bass
Stefan Kaufmann - drums
Guest musicians:
Jacky Virgil - backing vocals on "Love Sensation"
U.D.O. and Mark Dodson - crowd vocals on "Turn the Wheel"

    1. X-T-C - 04:25
    2. Generation Clash - 06:22
    3. Chain Reaction - 04:38
    4. Love Sensation - 04:42
    5. Turn the Wheel - 05:24
    6. Hellhammer - 05:30
    7. Prisoner - 04:50
    8. I Can't Believe In You - 04:48
    9. Mistreated - 08:52
    10. Stand 4 What U R - 04:05
    11. Break The Ice - 04:12
    12. D-Train - 04:24

    TPT: 61:22

iFolder
or
Narod

log
Exact Audio Copy V1.0 beta 3 from 29. August 2011

EAC extraction logfile from 6. May 2012, 15:43

ACCEPT / EAT THE HEAT

Used drive : _NEC DVD_RW ND-4550A Adapter: 0 ID: 0

Read mode : Secure
Utilize accurate stream : Yes
Defeat audio cache : Yes
Make use of C2 pointers : No

Read offset correction : 48
Overread into Lead-In and Lead-Out : No
Fill up missing offset samples with silence : Yes
Delete leading and trailing silent blocks : No
Null samples used in CRC calculations : Yes
Used interface : Installed external ASPI interface

Used output format : User Defined Encoder
Selected bitrate : 896 kBit/s
Quality : High
Add ID3 tag : No
Command line compressor : C:\Program Files\Exact Audio Copy\Flac\flac.exe
Additional command line options : -V -8 -T "Date=%year%" -T "Genre=%genre%" %source%


TOC of the extracted CD

Track | Start | Length | Start sector | End sector
---------------------------------------------------------
1 | 0:00.00 | 4:26.65 | 0 | 20014
2 | 4:26.65 | 6:23.32 | 20015 | 48771
3 | 10:50.22 | 4:39.08 | 48772 | 69704
4 | 15:29.30 | 4:42.47 | 69705 | 90901
5 | 20:12.02 | 5:24.63 | 90902 | 115264
6 | 25:36.65 | 5:30.10 | 115265 | 140024
7 | 31:07.00 | 4:50.37 | 140025 | 161811
8 | 35:57.37 | 4:48.43 | 161812 | 183454
9 | 40:46.05 | 8:53.52 | 183455 | 223481
10 | 49:39.57 | 4:05.45 | 223482 | 241901
11 | 53:45.27 | 4:12.33 | 241902 | 260834
12 | 57:57.60 | 4:26.05 | 260835 | 280789


Range status and errors

Selected range

Filename D:\MUSIC\NOT.FOR.SALE!\ACCEPT - EAT THE HEAT.wav

Peak level 100.0 %
Extraction speed 6.6 X
Range quality 99.9 %
Test CRC 23FADA55
Copy CRC 23FADA55
Copy OK

No errors occurred


AccurateRip summary

Track 1 accurately ripped (confidence 2) [E66D7970] (AR v1)
Track 2 accurately ripped (confidence 2) [0D4E0F82] (AR v1)
Track 3 accurately ripped (confidence 2) [94ACED9A] (AR v1)
Track 4 accurately ripped (confidence 2) [94B00263] (AR v1)
Track 5 accurately ripped (confidence 2) [FD081EFC] (AR v1)
Track 6 accurately ripped (confidence 2) [D6CEECDD] (AR v1)
Track 7 accurately ripped (confidence 2) [408019E6] (AR v1)
Track 8 accurately ripped (confidence 2) [42FFFDEF] (AR v1)
Track 9 accurately ripped (confidence 2) [27DF5677] (AR v1)
Track 10 accurately ripped (confidence 2) [5A941958] (AR v1)
Track 11 accurately ripped (confidence 2) [345C8344] (AR v1)
Track 12 accurately ripped (confidence 2) [822E5F12] (AR v1)

All tracks accurately ripped

End of status report

---- CUETools DB Plugin V2.1.3

[CTDB TOCID: 66G45.D6oDn.KxlbdUz7xZjKJV8-] found, Submit result: already submitted
[d8f7acc8] (2/2) Accurately ripped


==== Log checksum C06A03AEBB84EF98EEE04C9D107E2D584466D3B1DBA11AE9D5A15DE1992B0E15 ====

cue
REM GENRE "Heavy Metal"
REM DATE 1989
REM DISCID B90E9F0C
REM COMMENT "ExactAudioCopy v1.0b3"
PERFORMER "ACCEPT"
TITLE "EAT THE HEAT"
FILE "ACCEPT - EAT THE HEAT.flac" WAVE
TRACK 01 AUDIO
TITLE "X-T-C"
PERFORMER "ACCEPT"
ISRC 000000000000
INDEX 01 00:00:00
TRACK 02 AUDIO
TITLE "Generation Clash"
PERFORMER "ACCEPT"
ISRC 000000000000
INDEX 01 04:26:65
TRACK 03 AUDIO
TITLE "Chain Reaction"
PERFORMER "ACCEPT"
ISRC 000000000000
INDEX 01 10:50:22
TRACK 04 AUDIO
TITLE "Love Sensation"
PERFORMER "ACCEPT"
ISRC 000000000000
INDEX 01 15:29:30
TRACK 05 AUDIO
TITLE "Turn The Wheel"
PERFORMER "ACCEPT"
ISRC 000000000000
INDEX 01 20:12:02
TRACK 06 AUDIO
TITLE "Hellhammer"
PERFORMER "ACCEPT"
ISRC 000000000000
INDEX 01 25:36:65
TRACK 07 AUDIO
TITLE "Prisoner"
PERFORMER "ACCEPT"
ISRC 000000000000
INDEX 01 31:07:00
TRACK 08 AUDIO
TITLE "I Can't Believe In You"
PERFORMER "ACCEPT"
ISRC 000000000000
INDEX 01 35:57:37
TRACK 09 AUDIO
TITLE "Mistreated"
PERFORMER "ACCEPT"
ISRC 000000000000
INDEX 01 40:46:05
TRACK 10 AUDIO
TITLE "Stand 4 What U R"
PERFORMER "ACCEPT"
ISRC 000000000000
INDEX 00 49:38:55
INDEX 01 49:39:57
TRACK 11 AUDIO
TITLE "Break The Ice"
PERFORMER "ACCEPT"
ISRC 000000000000
INDEX 01 53:45:27
TRACK 12 AUDIO
TITLE "D-Train"
PERFORMER "ACCEPT"
ISRC 000000000000
INDEX 01 57:57:60

spectrum
Image

_________________
HELLo!


Top
 Profile  
 
 
PostPosted: 26 Oct 2014 
Хиппей (support team)
User avatar
Joined: 30 Jul 2007
Posts: 114881
Lоcаtion: Киев (Kyiv, UA)
Age: 46
Name: Andrey
dr_rockter wrote:
После этого Хоффман замолчал, понимает, что можно влететь

Ну там Хоффман лишь музыкант. Юридическими правами и самой группой рулит жена - Габи Хауке :pardon:

Чуть ниже фотка и вырезки Андреса из разных тырвью http://www.accept-archive.ru/forum/view ... start=1395 (глазики не сломайте, читая на том форуме текст :cry: )

Image

_________________


Top
 Profile E-mail  
 
 
PostPosted: 26 Oct 2014 
Alive Again
User avatar
Joined: 17 Dec 2008
Posts: 4747
Lоcаtion: Курск Воронеж Оскол
Age: 45
Name: Дмитрий
Quote:
Чуть ниже фотка и вырезки Андреса из разных тырвью http://www.accept-archive.ru/forum/view ... start=1395 (глазики не сломайте, читая на том форуме текст :cry: )

Жуткий форум, вариант выделения текста обычно применяемый в таких случая не прошёл, ну и ладно, главное информация.
Всё оказалось гораздо прозаичнее. Даже у таких суровых металлических групп, есть тётя, которая не умеет ни петь ни играть, но имеет зашкаливающее ЧСВ и желание указывать, что и кому надо делать. Никогда не понимал парней типа Вольфа, хотя у меня есть несколько знакомых, которые стали такими после свадьбы :cry: (возможно они были такими и до неё :crazy:) Зато раскрылось истинное лицо, а точнее гримаса :horror: из-за которой группа ворвавшаяся с сильнейшими альбомами на метал сцену и имевшая огромный потенциал, так и не смогла продолжить выбранный путь. Есть шанс, что объединение всё-таки произойдёт, после того, как эта барышня сыграет в ящик, правда по статистике мужики уходят раньше, а уж такие тётки могут пережить всех членов команды :zo:


Last edited by dr_rockter on 26 Oct 2014, edited 1 time in total.

Top
 Profile E-mail  
 
 
PostPosted: 26 Oct 2014 
Доктор энтомологии
User avatar
Joined: 22 Jan 2009
Posts: 9925
Lоcаtion: Даугавпилс
Age: 44
Name: Алексей
Подкаблучники!!


Top
 Profile  
 
 
PostPosted: 26 Oct 2014 
Хиппей (support team)
User avatar
Joined: 30 Jul 2007
Posts: 114881
Lоcаtion: Киев (Kyiv, UA)
Age: 46
Name: Andrey
Да-да, срамота!
Давайте трахать котов :oops:

_________________


Top
 Profile E-mail  
 
 
PostPosted: 27 Oct 2014 
Alive Again
User avatar
Joined: 17 Dec 2008
Posts: 4747
Lоcаtion: Курск Воронеж Оскол
Age: 45
Name: Дмитрий
Да-да, срамота!
Давайте трахать котов :oops:

:shok:
нет уж сами трахайте, ты ж свою чумазаю кошечку уже отдал?

Помню была такая фраза в фильмы PCU, - "мы уже не трахаем овец просто так, ради удовольствия".
Кстати, кто не видел, отличный фильм с музыкальнораздолбайской направленностью, я его 18 лет назад смотрел, а сейчас Андрей Саныч своими мыслями про котиков напомнил, пора пересмотреть (найти бы с оригинальным переводом, я так понял, что нужен перевод Михалева).
PCU (Политически Правильный Университет)


Top
 Profile E-mail  
 
 
PostPosted: 28 Oct 2014 
\m/ 80 см сала \m/
User avatar
Joined: 12 Mar 2012
Posts: 2590
Age: 26
Name: Nick
Боюсь, что без тетеньки Габи Ассетры могли так и остаться очередным метал-коллективом 80тых без особых успехов :benya:
Да и не в самих тетеньках дело - Accept не первый, и явно не последний коллектив, который одновременно и выиграл, и пострадал от находящегося у руля гитариста-виртуоза с диктаторскими замашками :pardon:

_________________
1990 AUROPHON BRAINSTORM (Germany) - lossless
1994 MAUSOLEUM CLASSIX (Belgium-Germany) - lossless
1998 VA - GRIM HARVEST - Complete Metal Massacre Volumes I-XII


Top
 Profile  
 
Display posts from previous:  Sort by  
Post new topic Reply to topic  [ 46 posts ]  Go to page Previous  1, 2, 3

All times are UTC + 3 hours


Who is online

Users browsing this forum: No registered users and 1 guest


You cannot post new topics in this forum
You cannot reply to topics in this forum
You cannot edit your posts in this forum
You cannot delete your posts in this forum
You cannot post attachments in this forum

Search for:
Яндекс.Метрика
Powered by phpBB © 2000, 2002, 2005, 2007 phpBB Group