\m/ 80's metal \m/

Информационно-аналитический форум "80 см пыли" (In Search We Trust) "У нас никто никуда не спешит"
Me For You - http://me-4u.com
It is currently 16 Oct 2019

All times are UTC + 3 hours

Spoiler
Chat - temporary registration for foreign users (please leave your application here)







Post new topic Reply to topic  [ 5 posts ] 
Author Message
 
PostPosted: 22 Mar 2012 
адын фелософъ прокметолу
User avatar
Joined: 22 Oct 2009
Posts: 2789
Lоcаtion: Сочи
Age: 42
Name: Сергей
Altered Vision - 1996 - Fantàsia [flac]
Image

Genre: Progressive Metal
Location: Italy
Format: flac+cue+log+scans
Size: 325 Mb

Line-up:
Renzo Moradin - Bass
Frederico Ziggiotto - Drums
Massimo Parolin - Guitars
Omar Palazzani - Vocals, Guitars, Keyboards

Tracklist:
1. Intro 00:44
2. Memories 04:45
3. Fantasy 02:44
4. Growing Up 03:38
5. Father 04:04
6. You Can't Say 03:25
7. I Feel Only My Love 04:37
8. Love All Around 03:37
9. Heaven Is Broken 04:08
10. Broken Dreams 04:25
11. Promised Land 03:15
12. Man 03:00
13. Think It Over 02:08
TPT:44:30

log
Отчёт EAC об извлечении, выполненном 19. марта 2012, 21:52 для диска:
Altered Vision / Fantasia

Дисковод: Optiarc BD RW BD-5300S Adapter: 1 ID: 1
Режим чтения: Достоверный (C2: нет, Точный поток: да, Отключение кэша: да)
Коррекция смещения при чтении: 48
Способность читать области Lead-in и Lead-out : Нет

Выходной формат: Внутренние WAV-операции
44.100 Гц; 16 бит; стерео

Другие параметры:
Заполнение пропущенных сэмплов тишиной : Да
Удаление блоков с тишиной в начале и конце : Нет
Установленный внешний ASPI-интерфейс


Характеристики диапазона извлечения и сообщения об ошибках
Выбранный диапазон
Имя файла C:\Users\Сергей\Music\Altered Vision - Fantasia.wav

Пиковый уровень 97.3 %
Качество диапазона 100.0 %
CRC 00C853B2
Копирование... OK

Ошибок не произошло

Конец отчёта


cue
REM GENRE "Progressive Rock"
REM DATE 1996
REM DISCID BF0A890D
REM COMMENT "ExactAudioCopy v0.95b4"
PERFORMER "Altered Vision"
TITLE "Fantasia"
FILE "Altered Vision - Fantasia.wav" WAVE
TRACK 01 AUDIO
TITLE "Intro"
PERFORMER "Altered Vision"
INDEX 00 00:00:00
INDEX 01 00:00:32
TRACK 02 AUDIO
TITLE "Memories"
PERFORMER "Altered Vision"
INDEX 01 00:45:22
TRACK 03 AUDIO
TITLE "Fantasy"
PERFORMER "Altered Vision"
INDEX 00 05:32:15
INDEX 01 05:33:15
TRACK 04 AUDIO
TITLE "Crowing Up"
PERFORMER "Altered Vision"
INDEX 00 08:18:52
INDEX 01 08:20:52
TRACK 05 AUDIO
TITLE "Father"
PERFORMER "Altered Vision"
INDEX 00 11:59:55
INDEX 01 12:01:55
TRACK 06 AUDIO
TITLE "You Can't Say"
PERFORMER "Altered Vision"
INDEX 00 16:03:22
INDEX 01 16:05:22
TRACK 07 AUDIO
TITLE "I Feel Only My Love"
PERFORMER "Altered Vision"
INDEX 00 19:32:37
INDEX 01 19:33:37
TRACK 08 AUDIO
TITLE "Love All Around"
PERFORMER "Altered Vision"
INDEX 00 24:12:47
INDEX 01 24:13:47
TRACK 09 AUDIO
TITLE "Heaven Is Brocken"
PERFORMER "Altered Vision"
INDEX 00 27:44:30
INDEX 01 27:46:30
TRACK 10 AUDIO
TITLE "Brocken Dreams"
PERFORMER "Altered Vision"
INDEX 00 31:56:42
INDEX 01 31:57:42
TRACK 11 AUDIO
TITLE "Promised Land"
PERFORMER "Altered Vision"
INDEX 00 36:23:42
INDEX 01 36:24:42
TRACK 12 AUDIO
TITLE "Man"
PERFORMER "Altered Vision"
INDEX 00 39:42:50
INDEX 01 39:43:50
TRACK 13 AUDIO
TITLE "Think It Over"
PERFORMER "Altered Vision"
INDEX 00 42:45:67
INDEX 01 42:46:67

Интересный прог с джазовыми и артовыми примочками

Народ

_________________
Я ненавижу гранж и альтернативную музыку


Top
 Profile E-mail  
 
 
PostPosted: 22 Mar 2012 
Прокъмитолист
User avatar
Joined: 12 Aug 2007
Posts: 6623
Lоcаtion: Санктъ-Петербуркъ
Age: 51
Name: Олекъ
и тут спасибо! :true:

_________________
прокъметол - это музыко, от которово есть прок (ы)


Top
 Profile  
 
 
PostPosted: 22 Mar 2012 
Хиппей (support team)
User avatar
Joined: 30 Jul 2007
Posts: 114839
Lоcаtion: Киев (Kyiv, UA)
Age: 46
Name: Andrey
:thanx:

_________________


Top
 Profile E-mail  
 
 
PostPosted: 22 Mar 2012 
Power Metal Maniac
User avatar
Joined: 09 Aug 2008
Posts: 6908
Lоcаtion: Москва
Age: 41
Name: Егор
:thanx:

_________________
Long Live Metal!


Top
 Profile  
 
 
PostPosted: 23 Jul 2012 
Труъ
User avatar
Joined: 05 Oct 2008
Posts: 194
Lоcаtion: Saint Petersburg
Age: 46
Name: Jesse
:thanx:


Top
 Profile  
 
Display posts from previous:  Sort by  
Post new topic Reply to topic  [ 5 posts ] 

All times are UTC + 3 hours


Who is online

Users browsing this forum: No registered users and 2 guests


You cannot post new topics in this forum
You cannot reply to topics in this forum
You cannot edit your posts in this forum
You cannot delete your posts in this forum
You cannot post attachments in this forum

Search for:
Яндекс.Метрика
cron
Powered by phpBB © 2000, 2002, 2005, 2007 phpBB Group