\m/ 80's metal \m/

Информационно-аналитический форум "80 см пыли" (In Search We Trust) "У нас никто никуда не спешит"
Me For You - http://me-4u.com
It is currently 20 Oct 2019

All times are UTC + 3 hours

Spoiler
Chat - temporary registration for foreign users (please leave your application here)







Post new topic Reply to topic  [ 7 posts ] 
Author Message
 
PostPosted: 22 Mar 2012 
адын фелософъ прокметолу
User avatar
Joined: 22 Oct 2009
Posts: 2789
Lоcаtion: Сочи
Age: 42
Name: Сергей
Aphelion - 1999 - Within' the Woods [Flac]
Image
Genre: Progressive Metal
Location: Singapore
Format: flac+cue+log+scans
Size: 295 Mb

Line-up:
Allen Eu - Bass
Brandon Khoo - Drums
Justin Ho - Guitars
Rudy Razali - Guitars, Keyboard
Eugene Sng - Vocals

Tracklist:
1. Reflections - 05:35
2. Alone - 04:49
3. Baptism of Fire - 10:51
4. Remnants of Yesterday - 11:08
5. Sleepless Lullabye - 05:26
6. Alone (demo version' 95) - 04:58

TPT: 42:47

Log
Отчёт EAC об извлечении, выполненном 19. марта 2012, 21:17 для диска:
Aphelion / Within The Woods

Дисковод: Optiarc BD RW BD-5300S Adapter: 1 ID: 1
Режим чтения: Достоверный (C2: нет, Точный поток: да, Отключение кэша: да)
Коррекция смещения при чтении: 48
Способность читать области Lead-in и Lead-out : Нет

Выходной формат: Внутренние WAV-операции
44.100 Гц; 16 бит; стерео

Другие параметры:
Заполнение пропущенных сэмплов тишиной : Да
Удаление блоков с тишиной в начале и конце : Нет
Установленный внешний ASPI-интерфейс


Характеристики диапазона извлечения и сообщения об ошибках
Выбранный диапазон
Имя файла C:\Users\Сергей\Music\Aphelion - Within The Woods.wav

Пиковый уровень 94.4 %
Качество диапазона 99.9 %
CRC 6D214468
Копирование... OK

Ошибок не произошло

Конец отчёта


Cue
REM GENRE "Progressive Rock"
REM DATE 1998
REM DISCID 440A1306
REM COMMENT "ExactAudioCopy v0.95b4"
PERFORMER "Aphelion"
TITLE "Within The Woods"
FILE "Aphelion - Within The Woods.wav" WAVE
TRACK 01 AUDIO
TITLE "Reflections"
PERFORMER "Aphelion"
INDEX 01 00:00:00
TRACK 02 AUDIO
TITLE "Alone"
PERFORMER "Aphelion"
INDEX 00 05:35:02
INDEX 01 05:38:02
TRACK 03 AUDIO
TITLE "Baptism Of Fire"
PERFORMER "Aphelion"
INDEX 00 10:27:03
INDEX 01 10:29:03
TRACK 04 AUDIO
TITLE "Remnants Of Yesterday"
PERFORMER "Aphelion"
INDEX 00 21:20:04
INDEX 01 21:23:04
TRACK 05 AUDIO
TITLE "Sleepless Lullaby"
PERFORMER "Aphelion"
INDEX 01 32:31:59
TRACK 06 AUDIO
TITLE "Alone (Demo Version)"
PERFORMER "Aphelion"
INDEX 00 37:57:60


Spectrum
Image


Единственная работа сингапурских музыкантов представляющая собою наследие раннего Dream Theater и британского прогрока

Народ

_________________
Я ненавижу гранж и альтернативную музыку


Top
 Profile E-mail  
 
 
PostPosted: 22 Mar 2012 
Прокъмитолист
User avatar
Joined: 12 Aug 2007
Posts: 6627
Lоcаtion: Санктъ-Петербуркъ
Age: 52
Name: Олекъ
интересно, такое забираем. Серёга, спасибо! :thanx:

_________________
прокъметол - это музыко, от которово есть прок (ы)


Top
 Profile  
 
 
PostPosted: 22 Mar 2012 
Хиппей (support team)
User avatar
Joined: 30 Jul 2007
Posts: 114953
Lоcаtion: Киев (Kyiv, UA)
Age: 46
Name: Andrey
:thanx:

mirror: Speedy l Narod

_________________


Top
 Profile E-mail  
 
 
PostPosted: 22 Mar 2012 
Power Metal Maniac
User avatar
Joined: 09 Aug 2008
Posts: 6923
Lоcаtion: Москва
Age: 41
Name: Егор
:thanx:

_________________
Long Live Metal!


Top
 Profile  
 
 
PostPosted: 22 Mar 2012 
спирт 100%
User avatar
Joined: 22 Sep 2008
Posts: 4475
Age: 48
Name: Саня
Серёга,Спасибо! :thanx: Интересно послушать


Top
 Profile  
 
 
PostPosted: 25 Mar 2012 
Хиппей (support team)
User avatar
Joined: 30 Jul 2007
Posts: 114953
Lоcаtion: Киев (Kyiv, UA)
Age: 46
Name: Andrey
Очень красивая мелодичная музыка с приятным вокалом, но для меня легковата :(
Прог-рок с некоторым вкраплением тяжелого хард-рока :pardon:

N/A

_________________


Top
 Profile E-mail  
 
 
PostPosted: 23 Jul 2012 
Труъ
User avatar
Joined: 05 Oct 2008
Posts: 194
Lоcаtion: Saint Petersburg
Age: 46
Name: Jesse
Очень интересно и нужно! Большое спасибо за релиз! Заберу.


Top
 Profile  
 
Display posts from previous:  Sort by  
Post new topic Reply to topic  [ 7 posts ] 

All times are UTC + 3 hours


Who is online

Users browsing this forum: No registered users and 2 guests


You cannot post new topics in this forum
You cannot reply to topics in this forum
You cannot edit your posts in this forum
You cannot delete your posts in this forum
You cannot post attachments in this forum

Search for:
Яндекс.Метрика
Powered by phpBB © 2000, 2002, 2005, 2007 phpBB Group