\m/ 80's metal \m/

Информационно-аналитический форум "80 см пыли" (In Search We Trust) "У нас никто никуда не спешит"
Me For You - http://me-4u.com
It is currently 18 Mar 2019

All times are UTC + 3 hours

Spoiler
Chat - temporary registration for foreign users (please leave your application here)







Post new topic Reply to topic  [ 16 posts ] 
Author Message
 
PostPosted: 10 Mar 2012 
Работнечег
User avatar
Joined: 28 Aug 2007
Posts: 5753
Lоcаtion: г. Москва
Age: 29
Name: Дима
Image

Band: Art Of Fear
Album: Art Of Fear
Label: Self-released
Genre: Thrash Metal
Country: Austria
Format: Flac + Log + Cue + Covers
Size: 184 Mb

Line-Up:
Thomas Metzler - Guitar, Vocals (Mortician)
Joe Künz - Drums
Johannes Leierer - Bass (Divine Temptation, Siegfried)


Tracklist:
1. On the Run 03:10
2. Lights in the Dark 03:06
3. 1942 04:57
4. Son to Father 02:47
5. Entertainment 03:19
6. Buried Alive 05:39

LOG
Exact Audio Copy V0.99 prebeta 5 from 4. May 2009

EAC extraction logfile from 10. March 2012, 13:52

Art Of Fear / Art Of Fear

Used drive : PIONEER DVD-RW DVR-116D Adapter: 0 ID: 0

Read mode : Secure
Utilize accurate stream : Yes
Defeat audio cache : Yes
Make use of C2 pointers : No

Read offset correction : 96
Overread into Lead-In and Lead-Out : No
Fill up missing offset samples with silence : Yes
Delete leading and trailing silent blocks : No
Null samples used in CRC calculations : Yes
Used interface : Native Win32 interface for Win NT & 2000

Used output format : User Defined Encoder
Selected bitrate : 32 kBit/s
Quality : High
Add ID3 tag : No
Command line compressor : C:\Program Files\Exact Audio Copy\Flac\flac.exe
Additional command line options : -6 -V %s


TOC of the extracted CD

Track | Start | Length | Start sector | End sector
---------------------------------------------------------
1 | 0:00.00 | 3:10.12 | 0 | 14261
2 | 3:10.12 | 3:06.47 | 14262 | 28258
3 | 6:16.59 | 4:57.57 | 28259 | 50590
4 | 11:14.41 | 2:47.61 | 50591 | 63176
5 | 14:02.27 | 3:19.39 | 63177 | 78140
6 | 17:21.66 | 5:39.24 | 78141 | 103589


Range status and errors

Selected range

Filename D:\Музыка\Lossless\Art Of Fear - Art Of Fear (1997)\Art Of Fear - Art Of Fear.wav

Peak level 100.0 %
Range quality 100.0 %
Copy CRC BEAABD7C
Copy OK

No errors occurred


AccurateRip summary

Track 1 not present in database
Track 2 not present in database
Track 3 not present in database
Track 4 not present in database
Track 5 not present in database
Track 6 not present in database

None of the tracks are present in the AccurateRip database

End of status report

CUE
REM GENRE "Power Metal"
REM DATE 1997
REM DISCID 4B056506
REM COMMENT "ExactAudioCopy v0.99pb5"
PERFORMER "Art Of Fear"
TITLE "Art Of Fear"
FILE "Art Of Fear - Art Of Fear.flac" WAVE
TRACK 01 AUDIO
TITLE "On The Run"
PERFORMER "Art Of Fear"
INDEX 01 00:00:00
TRACK 02 AUDIO
TITLE "Lights In The Dark"
PERFORMER "Art Of Fear"
INDEX 01 03:10:12
TRACK 03 AUDIO
TITLE "1942"
PERFORMER "Art Of Fear"
INDEX 01 06:16:59
TRACK 04 AUDIO
TITLE "Son To Father"
PERFORMER "Art Of Fear"
INDEX 01 11:14:41
TRACK 05 AUDIO
TITLE "Entertainment"
PERFORMER "Art Of Fear"
INDEX 01 14:02:27
TRACK 06 AUDIO
TITLE "Buried Alive"
PERFORMER "Art Of Fear"
INDEX 01 17:21:66

Spectrum
Image


Narod.Ru

По музыке первый альбом выдался чисто трэшевым и вообщем-то достойным. Альбом прежде всего подкупает своей агрессией и злым вокалом Thomas Metzler'a. Далее группа взяла себе вокалиста и сменила стиль на более мелодичный павер.


Top
 Profile E-mail  
 
 
PostPosted: 10 Mar 2012 
Power Metal Maniac
User avatar
Joined: 09 Aug 2008
Posts: 6635
Lоcаtion: Москва
Age: 41
Name: Егор
:thanx:

mirror: Speedy l Narod

_________________
Long Live Metal!


Top
 Profile  
 
 
PostPosted: 10 Mar 2012 
Хиппей (support team)
User avatar
Joined: 30 Jul 2007
Posts: 111018
Lоcаtion: Киев (Kyiv, UA)
Age: 45
Name: Andrey
:thanx:

_________________


Top
 Profile E-mail  
 
 
PostPosted: 10 Mar 2012 
Персональный статус
User avatar
Joined: 22 Oct 2011
Posts: 352
Lоcаtion: Moscow
Age: 60
Name: Серёжа
:thanx:


Top
 Profile E-mail  
 
 
PostPosted: 11 Mar 2012 
Прокъмитолист
User avatar
Joined: 12 Aug 2007
Posts: 6535
Lоcаtion: Санктъ-Петербуркъ
Age: 51
Name: Олекъ
спасибо, Дим! :true:

_________________
прокъметол - это музыко, от которово есть прок (ы)


Top
 Profile  
 
 
PostPosted: 11 Mar 2012 
Генеральный thrasher
User avatar
Joined: 03 Oct 2008
Posts: 3663
Lоcаtion: Ханты-Мансийский АО
Age: 44
Name: Сергей
:losik: :thanx:


Top
 Profile  
 
 
PostPosted: 11 Mar 2012 
Генеральный thrasher
User avatar
Joined: 03 Oct 2008
Posts: 3663
Lоcаtion: Ханты-Мансийский АО
Age: 44
Name: Сергей
Альбом офигенный! :true:


Top
 Profile  
 
 
PostPosted: 17 Mar 2012 
ТрэшЭрос
User avatar
Joined: 18 Jul 2011
Posts: 2302
Lоcаtion: Гулькевичи
Age: 44
Name: Александр
church, :thanx:
Это - просто 3,14здец!!! :true: :true: :true:

А шо дальше с ними стало? Испоганились окаянные? :crazy:

_________________
Thrash no trash!!!


Top
 Profile E-mail  
 
 
PostPosted: 17 Mar 2012 
Работнечег
User avatar
Joined: 28 Aug 2007
Posts: 5753
Lоcаtion: г. Москва
Age: 29
Name: Дима
MetallicAS wrote:
А шо дальше с ними стало? Испоганились окаянные? :crazy:

послушай вот здесь viewtopic.php?f=102&t=7634&hilit=art+of+fear два альбомчика) по мне так не испоганились, просто помелодичнее играть стали, но без соплей) я кое-что ещё выложу в лосях)


Top
 Profile E-mail  
 
 
PostPosted: 17 Mar 2012 
ТрэшЭрос
User avatar
Joined: 18 Jul 2011
Posts: 2302
Lоcаtion: Гулькевичи
Age: 44
Name: Александр
church wrote:
...два альбомчика)

Один - "Master of Pain"
Второй - ??? :oops:

_________________
Thrash no trash!!!


Top
 Profile E-mail  
 
 
PostPosted: 17 Mar 2012 
Работнечег
User avatar
Joined: 28 Aug 2007
Posts: 5753
Lоcаtion: г. Москва
Age: 29
Name: Дима
Второй Kill The Demon, правда ссылка умерал, я перезалью


Top
 Profile E-mail  
 
 
PostPosted: 17 Mar 2012 
ТрэшЭрос
User avatar
Joined: 18 Jul 2011
Posts: 2302
Lоcаtion: Гулькевичи
Age: 44
Name: Александр
church wrote:
я перезалью


:losik: :thanx: :true: :dance:

_________________
Thrash no trash!!!


Top
 Profile E-mail  
 
 
PostPosted: 23 Jul 2012 
Труъ
User avatar
Joined: 05 Oct 2008
Posts: 194
Lоcаtion: Saint Petersburg
Age: 45
Name: Jesse
Большой человеческий СПАСИБ! Этого как раз не было. :thanx:


Top
 Profile  
 
 
PostPosted: 23 Jul 2012 
ТрэшЭрос
User avatar
Joined: 18 Jul 2011
Posts: 2302
Lоcаtion: Гулькевичи
Age: 44
Name: Александр
church wrote:
3. 1942 04:57

Это что-то просто... :true: :true: :true:

_________________
Thrash no trash!!!


Top
 Profile E-mail  
 
 
PostPosted: 25 Jul 2013 
ТрэшЭрос
User avatar
Joined: 18 Jul 2011
Posts: 2302
Lоcаtion: Гулькевичи
Age: 44
Name: Александр
Год прошёл, а мы всё ещё в акуе от сего музла!!! :dash: :dash: :dash:
Дима, :thanx: и :true:
Тема, в названии которой нет букф, просто вынос моска... :esel:

_________________
Thrash no trash!!!


Top
 Profile E-mail  
 
 
PostPosted: 27 Jul 2013 
Работнечег
User avatar
Joined: 28 Aug 2007
Posts: 5753
Lоcаtion: г. Москва
Age: 29
Name: Дима
Та не за что) Kill The Demon на подходе ;)


Top
 Profile E-mail  
 
Display posts from previous:  Sort by  
Post new topic Reply to topic  [ 16 posts ] 

All times are UTC + 3 hours


Who is online

Users browsing this forum: No registered users and 2 guests


You cannot post new topics in this forum
You cannot reply to topics in this forum
You cannot edit your posts in this forum
You cannot delete your posts in this forum
You cannot post attachments in this forum

Search for:
Яндекс.Метрика
Powered by phpBB © 2000, 2002, 2005, 2007 phpBB Group