\m/ 80's metal \m/

Информационно-аналитический форум "80 см пыли" (In Search We Trust) "У нас никто никуда не спешит"
Me For You - http://me-4u.com
It is currently 20 Oct 2019

All times are UTC + 3 hours

Spoiler
Chat - temporary registration for foreign users (please leave your application here)







Post new topic Reply to topic  [ 27 posts ]  Go to page 1, 2  Next
Author Message
 
PostPosted: 23 Dec 2011 
Труъ
User avatar
Joined: 14 Jul 2009
Posts: 158
Lоcаtion: Hell Is Here
Age: 49
Name: Adriano
==================================================
Angel Witch - Screamin 'n' Bleedin' (1985) [re-release 2004]
==================================================
Image

Track List:
01. Whose To Blame
02. Child Of The Night
03. Evil Games
04. Afraid Of The Dark
05. Screaming 'N' Bleeding
06. Re-awakening
07. Waltz the Night
08. Goodbye
09. Fatal Kiss
10. U.X.B.

Bonus
11. Frontal Assault [Live] (3:55)
12. Screamin' 'N' Bleedin' [Live] (4:16)
13. Straight from Hell [Live] (3:58)

Please, Thanks !!


Top
 Profile E-mail  
 
 
PostPosted: 24 Dec 2011 
Хиппей (support team)
User avatar
Joined: 30 Jul 2007
Posts: 114953
Lоcаtion: Киев (Kyiv, UA)
Age: 46
Name: Andrey
У Спидика есть.
Если больше никто не отзовется - возьму у него :pardon:


Label: Archaic Temple

_________________


Top
 Profile E-mail  
 
 
PostPosted: 24 Dec 2011 
Персональный статус
User avatar
Joined: 22 Oct 2011
Posts: 352
Lоcаtion: Moscow
Age: 60
Name: Серёжа
Щас залью..


Top
 Profile E-mail  
 
 
PostPosted: 24 Dec 2011 
Персональный статус
User avatar
Joined: 22 Oct 2011
Posts: 352
Lоcаtion: Moscow
Age: 60
Name: Серёжа
залил:

Angel Witch - 1985 - Screamin' 'N' Bleedin' (Reissue 2004) [flac]

Attachment:
Angel Witch - Screaming 'n' Bleeding - front.jpg
Angel Witch - Screaming 'n' Bleeding - front.jpg [ 1.34 MiB | Viewed 113 times ]

Attachment:
Angel Witch - Screaming 'n' Bleeding - back.jpg
Angel Witch - Screaming 'n' Bleeding - back.jpg [ 1008.01 KiB | Viewed 123 times ]


http://narod.ru/disk/35351809001/A.rar.html

log
Exact Audio Copy V0.99 prebeta 5 from 4. May 2009

EAC extraction logfile from 13. July 2011, 13:02

Angel Witch / Screamin' 'N' Bleedin' (Reissue 2004)

Used drive : ASUS DRW-22B2S Adapter: 0 ID: 1

Read mode : Secure
Utilize accurate stream : Yes
Defeat audio cache : Yes
Make use of C2 pointers : No

Read offset correction : 6
Overread into Lead-In and Lead-Out : No
Fill up missing offset samples with silence : Yes
Delete leading and trailing silent blocks : No
Null samples used in CRC calculations : Yes
Used interface : Native Win32 interface for Win NT & 2000

Used output format : Internal WAV Routines
Sample format : 44.100 Hz; 16 Bit; Stereo


TOC of the extracted CD

Track | Start | Length | Start sector | End sector
---------------------------------------------------------
1 | 0:00.00 | 4:06.02 | 0 | 18451
2 | 4:06.02 | 3:48.52 | 18452 | 35603
3 | 7:54.54 | 4:18.05 | 35604 | 54958
4 | 12:12.59 | 6:03.09 | 54959 | 82192
5 | 18:15.68 | 4:42.50 | 82193 | 103392
6 | 22:58.43 | 4:58.12 | 103393 | 125754
7 | 27:56.55 | 5:59.00 | 125755 | 152679
8 | 33:55.55 | 3:44.12 | 152680 | 169491
9 | 37:39.67 | 4:41.14 | 169492 | 190580
10 | 42:21.06 | 2:08.26 | 190581 | 200206
11 | 44:29.32 | 3:55.13 | 200207 | 217844
12 | 48:24.45 | 4:16.08 | 217845 | 237052
13 | 52:40.53 | 3:57.70 | 237053 | 254897


Range status and errors

Selected range

Filename C:\Angel Witch - 1985 - Screamin' 'N' Bleedin' (Reissue 2004).wav

Peak level 96.5 %
Range quality 100.0 %
Copy CRC 8731FD44
Copy OK

No errors occurred


AccurateRip summary

Track 1 cannot be verified as accurate (confidence 1) [C43DCFD4], AccurateRip returned [BB2A9FF2]
Track 2 cannot be verified as accurate (confidence 1) [5E24F154], AccurateRip returned [28C2DEE0]
Track 3 cannot be verified as accurate (confidence 1) [C25FE46A], AccurateRip returned [1ADF5304]
Track 4 cannot be verified as accurate (confidence 1) [890C3F2D], AccurateRip returned [400F45EB]
Track 5 cannot be verified as accurate (confidence 1) [D953A93C], AccurateRip returned [70517326]
Track 6 cannot be verified as accurate (confidence 1) [2710BF7F], AccurateRip returned [15FB53FF]
Track 7 cannot be verified as accurate (confidence 1) [485DE062], AccurateRip returned [DE37C07D]
Track 8 cannot be verified as accurate (confidence 1) [27A5F047], AccurateRip returned [999D0AA1]
Track 9 cannot be verified as accurate (confidence 1) [22E26DFB], AccurateRip returned [09946F72]
Track 10 cannot be verified as accurate (confidence 1) [3CBCFF53], AccurateRip returned [67C6E464]
Track 11 cannot be verified as accurate (confidence 1) [E867F696], AccurateRip returned [2E34B0FC]
Track 12 cannot be verified as accurate (confidence 1) [958C8A4D], AccurateRip returned [6A5703F0]
Track 13 cannot be verified as accurate (confidence 1) [0DBF9361], AccurateRip returned [5BDE3312]

No tracks could be verified as accurate
You may have a different pressing from the one(s) in the database

End of status report


cue
REM GENRE "Heavy Metal"
REM DATE 1985
REM DISCID B40D460D
REM COMMENT "ExactAudioCopy v0.99pb5"
PERFORMER "Angel Witch"
TITLE "Screamin' 'N' Bleedin' (Reissue 2004)"
FILE "Angel Witch - 1985 - Screamin' 'N' Bleedin' (Reissue 2004).flac" WAVE
TRACK 01 AUDIO
TITLE "Whose to Blame"
PERFORMER "Angel Witch"
INDEX 01 00:00:00
TRACK 02 AUDIO
TITLE "Child of the Night"
PERFORMER "Angel Witch"
INDEX 01 04:06:02
TRACK 03 AUDIO
TITLE "Evil Games"
PERFORMER "Angel Witch"
INDEX 01 07:54:54
TRACK 04 AUDIO
TITLE "Afraid of the Dark"
PERFORMER "Angel Witch"
INDEX 01 12:12:59
TRACK 05 AUDIO
TITLE "Screamin' 'N' Bleedin'"
PERFORMER "Angel Witch"
INDEX 01 18:15:68
TRACK 06 AUDIO
TITLE "Reawakening"
PERFORMER "Angel Witch"
INDEX 01 22:58:43
TRACK 07 AUDIO
TITLE "Waltz the Night"
PERFORMER "Angel Witch"
INDEX 01 27:56:55
TRACK 08 AUDIO
TITLE "Goodbye"
PERFORMER "Angel Witch"
INDEX 01 33:55:55
TRACK 09 AUDIO
TITLE "Fatal Kiss"
PERFORMER "Angel Witch"
INDEX 01 37:39:67
TRACK 10 AUDIO
TITLE "U.X.V."
PERFORMER "Angel Witch"
INDEX 01 42:21:06
TRACK 11 AUDIO
TITLE "Frontal Assault (live)"
PERFORMER "Angel Witch"
INDEX 01 44:29:32
TRACK 12 AUDIO
TITLE "Screamin' 'N' Bleedin' (live)"
PERFORMER "Angel Witch"
INDEX 01 48:24:45
TRACK 13 AUDIO
TITLE "Straight from Hell (live)"
PERFORMER "Angel Witch"
INDEX 01 52:40:53


spectrum
Attachment:
spectrum.jpg
spectrum.jpg [ 367.16 KiB | Viewed 96 times ]


Top
 Profile E-mail  
 
 
PostPosted: 24 Dec 2011 
Хиппей (support team)
User avatar
Joined: 30 Jul 2007
Posts: 114953
Lоcаtion: Киев (Kyiv, UA)
Age: 46
Name: Andrey
Ой, красота какая :dance:
Серёж, спасибо! :thanx:

mirror: MultiUp l Narod

_________________


Top
 Profile E-mail  
 
 
PostPosted: 24 Dec 2011 
Труъ
User avatar
Joined: 14 Jul 2009
Posts: 158
Lоcаtion: Hell Is Here
Age: 49
Name: Adriano
Great ,Thank you "Серёжа" for filling my request ! Many thanks ! :thanx: :true:


Top
 Profile E-mail  
 
 
PostPosted: 24 Dec 2011 
Генеральный thrasher
User avatar
Joined: 03 Oct 2008
Posts: 3741
Lоcаtion: Ханты-Мансийский АО
Age: 44
Name: Сергей
И от меня спасибо! :true:


Top
 Profile  
 
 
PostPosted: 24 Dec 2011 
мелосмертхстер
User avatar
Joined: 11 Jul 2008
Posts: 1058
Lоcаtion: (Әлмәт/Самара)
Age: 43
Name: Rus†Ⓐm
спасибо :thanx:

_________________
Everytime I Die

Image


Top
 Profile E-mail  
 
 
PostPosted: 24 Dec 2011 
Пионэръ
User avatar
Joined: 08 Nov 2010
Posts: 43
Lоcаtion: Россия
Name: Юрий
sorog
Спасибо, уже слушаю.


Top
 Profile E-mail  
 
 
PostPosted: 24 Dec 2011 
Прокъмитолист
User avatar
Joined: 12 Aug 2007
Posts: 6627
Lоcаtion: Санктъ-Петербуркъ
Age: 52
Name: Олекъ
и от меня спасибо! забираю :thanx:

_________________
прокъметол - это музыко, от которово есть прок (ы)


Top
 Profile  
 
 
PostPosted: 24 Dec 2011 
Доктор энтомологии
User avatar
Joined: 22 Jan 2009
Posts: 9927
Lоcаtion: Даугавпилс
Age: 44
Name: Алексей
:thanx:


Top
 Profile  
 
 
PostPosted: 24 Dec 2011 
Хиппей (support team)
User avatar
Joined: 30 Jul 2007
Posts: 114953
Lоcаtion: Киев (Kyiv, UA)
Age: 46
Name: Andrey
Неужто ни у кого не было этого переиздания? :shok:

_________________


Top
 Profile E-mail  
 
 
PostPosted: 24 Dec 2011 
Доктор энтомологии
User avatar
Joined: 22 Jan 2009
Posts: 9927
Lоcаtion: Даугавпилс
Age: 44
Name: Алексей
ваще ни разу не слушал и не имел альбом ни в каком формате :thanx:


Top
 Profile  
 
 
PostPosted: 24 Dec 2011 
Хиппей (support team)
User avatar
Joined: 30 Jul 2007
Posts: 114953
Lоcаtion: Киев (Kyiv, UA)
Age: 46
Name: Andrey
Чего-то я поначалу думал, что он есть на "всемогучих закрытых доках". А вот и фиг. Только в эмпэзэ.

_________________


Top
 Profile E-mail  
 
 
PostPosted: 25 Dec 2011 
Хиппей (support team)
User avatar
Joined: 30 Jul 2007
Posts: 114953
Lоcаtion: Киев (Kyiv, UA)
Age: 46
Name: Andrey
Заменены сканы в постинге Сергея.
Говорим спасибо Олегу Спиралычу за работу над обрезанием :thanx:

Ну и может кому пригодятся альтернативные сканы :vic:

http://cover-paradise.to/?Module=ViewEntry&ID=173191
http://cover-paradise.to/?Module=ViewEntry&ID=622996

_________________


Top
 Profile E-mail  
 
 
PostPosted: 25 Dec 2011 
хард н хэвщик (support team)
User avatar
Joined: 02 Jun 2008
Posts: 16881
Lоcаtion: Н.Новгород
Age: 32
Name: Артем
Scatterbrain wrote:
Говорим спасибо Олегу Спиралычу за работу над обрезанием :thanx:

а чо такого экстра-сложного в обрезании? :vic:


Top
 Profile  
 
 
PostPosted: 25 Dec 2011 
Power Metal Maniac
User avatar
Joined: 09 Aug 2008
Posts: 6923
Lоcаtion: Москва
Age: 41
Name: Егор
:thanx:

_________________
Long Live Metal!


Top
 Profile  
 
 
PostPosted: 25 Dec 2011 
Прокъмитолист
User avatar
Joined: 12 Aug 2007
Posts: 6627
Lоcаtion: Санктъ-Петербуркъ
Age: 52
Name: Олекъ
McKagan wrote:
а чо такого экстра-сложного в обрезании?

ну тут какбе не только в обрезании дело, надо еще и повернуть поточнее. сложного и правда ничего нет, но Андрюха упорно отказывается воспользоваться моими консультациями :pardon:

_________________
прокъметол - это музыко, от которово есть прок (ы)


Top
 Profile  
 
 
PostPosted: 25 Dec 2011 
Хиппей (support team)
User avatar
Joined: 30 Jul 2007
Posts: 114953
Lоcаtion: Киев (Kyiv, UA)
Age: 46
Name: Andrey
spiralarch wrote:
но Андрюха упорно отказывается воспользоваться моими консультациями :pardon:

Есть такой грешок :oops: (Кстати, нада их на форуме запостить, пока история в аське совсем не ушла далеко...)

Это сродни тому, чтоб Артёма просить лить песни на Ютуб, а не на ДивШару - так времени меньше уходит =)
Ну и дело привычки и сноровки. Я когда в первый раз нормально разберусь с градусами этими, то уже сам буду доводить до ума криво отсканенные картинки :pardon:

_________________


Top
 Profile E-mail  
 
 
PostPosted: 25 Dec 2011 
HAMMER
User avatar
Joined: 16 May 2009
Posts: 5488
Lоcаtion: Тверь
Age: 46
Name: Александр
Могу научить, как в фотошопе обрезать и выравнивать офигенно кривые фото. С волной чуть посложнее будет.


Top
 Profile E-mail  
 
Display posts from previous:  Sort by  
Post new topic Reply to topic  [ 27 posts ]  Go to page 1, 2  Next

All times are UTC + 3 hours


Who is online

Users browsing this forum: No registered users and 1 guest


You cannot post new topics in this forum
You cannot reply to topics in this forum
You cannot edit your posts in this forum
You cannot delete your posts in this forum
You cannot post attachments in this forum

Search for:
Яндекс.Метрика
Powered by phpBB © 2000, 2002, 2005, 2007 phpBB Group