\m/ 80's metal \m/

Информационно-аналитический форум "80 см пыли" (In Search We Trust) "У нас никто никуда не спешит"
Me For You - http://me-4u.com
It is currently 20 Oct 2019

All times are UTC + 3 hours

Spoiler
Chat - temporary registration for foreign users (please leave your application here)







Post new topic Reply to topic  [ 26 posts ]  Go to page Previous  1, 2
Author Message
 
PostPosted: 19 Sep 2011 
Хиппей (support team)
User avatar
Joined: 30 Jul 2007
Posts: 114953
Lоcаtion: Киев (Kyiv, UA)
Age: 46
Name: Andrey
Attacker - 2004 - Soul Taker [flac]

Attachment:
front.jpg
front.jpg [ 1.07 MiB | Viewed 114 times ]

Attachment:
back.jpg
back.jpg [ 1.32 MiB | Viewed 120 times ]


Genre: Speed Heavy/Power Metal
Location: USA
Format: flac+cue+log+scans (front+back)
Size: 366 Mb


    1. The End - 03:06
    2. Forgotten - 04:12
    3. Sleepy Hollow - 02:28
    4. Tortured Existence - 04:30
    5. Soul Taker - 06:54
    6. Jack - 04:53
    7. The Conquerors - 04:16
    8. Return To Mordor - 05:43
    9. Raging Fist - 04:38
    10. Until We Meet Again - 05:52

    TPT: 46:32

Источник: спёрто из дока http://hpml.moole.ru

Все благодарности за музыку - музыкантам, а жалобы и пожелания отправляйте товарищу aviacademy :thanx:

MultiUp l Narod

Хм, альбом, как ни странно, меня порвал :pray:
Стиль определить точно сложновато, поэтому и пытаться не буду. Слушаем второй альбом от Metal Church (плюс накладываем туда многоголосье, которое постоянно разветвляется равномерно то в правом, то в левом ухах), добавляем еще больше мелодизма и жесткости и получаем на выходе этот вот шедевр.
Можно еще и ранний Overkill и немного King Diamond сюда добавить - точно не повредят :meloman:

9/10

log
Exact Audio Copy V0.99 prebeta 5 from 4. May 2009

EAC extraction logfile from 31. August 2010, 12:07

Attacker / Soul Taker

Used drive : _NEC DVD_RW ND-3540A Adapter: 3 ID: 2

Read mode : Secure
Utilize accurate stream : Yes
Defeat audio cache : Yes
Make use of C2 pointers : No

Read offset correction : 48
Overread into Lead-In and Lead-Out : No
Fill up missing offset samples with silence : Yes
Delete leading and trailing silent blocks : No
Null samples used in CRC calculations : Yes
Used interface : Native Win32 interface for Win NT & 2000

Used output format : User Defined Encoder
Selected bitrate : 1024 kBit/s
Quality : High
Add ID3 tag : No
Command line compressor : C:\Program Files\Exact Audio Copy\FLAC\FLAC.EXE
Additional command line options : -8 -V -T "ARTIST=%a" -T "TITLE=%t" -T "ALBUM=%g" -T "DATE=%y" -T "TRACKNUMBER=%n" -T "GENRE=%m" -T "COMMENT=EAC FLAC -8" %s


TOC of the extracted CD

Track | Start | Length | Start sector | End sector
---------------------------------------------------------
1 | 0:00.00 | 3:06.71 | 0 | 14020
2 | 3:06.71 | 4:12.63 | 14021 | 32983
3 | 7:19.59 | 2:29.04 | 32984 | 44162
4 | 9:48.63 | 4:31.05 | 44163 | 64492
5 | 14:19.68 | 6:55.34 | 64493 | 95651
6 | 21:15.27 | 4:53.53 | 95652 | 117679
7 | 26:09.05 | 4:17.33 | 117680 | 136987
8 | 30:26.38 | 5:44.05 | 136988 | 162792
9 | 36:10.43 | 4:38.58 | 162793 | 183700
10 | 40:49.26 | 5:53.16 | 183701 | 210191


Range status and errors

Selected range

Filename I:\Lossless_Flac\Attacker - Soul Taker.wav

Peak level 98.9 %
Range quality 100.0 %
Test CRC 64C47597
Copy CRC 64C47597
Copy OK

No errors occurred


AccurateRip summary

Track 1 cannot be verified as accurate (confidence 2) [DD9633E7], AccurateRip returned [AFA1B101]
Track 2 cannot be verified as accurate (confidence 2) [0824C5C0], AccurateRip returned [E894EDA7]
Track 3 cannot be verified as accurate (confidence 2) [1FEC05A6], AccurateRip returned [D8C2BF2E]
Track 4 cannot be verified as accurate (confidence 2) [0374D965], AccurateRip returned [08BEABEA]
Track 5 cannot be verified as accurate (confidence 2) [F027AF21], AccurateRip returned [F5347A61]
Track 6 cannot be verified as accurate (confidence 2) [22B0F95F], AccurateRip returned [B6D6059B]
Track 7 cannot be verified as accurate (confidence 2) [BFBBA6FC], AccurateRip returned [B4E0D361]
Track 8 cannot be verified as accurate (confidence 2) [9817302E], AccurateRip returned [3E961927]
Track 9 cannot be verified as accurate (confidence 2) [2BEDFF29], AccurateRip returned [C58D3836]
Track 10 cannot be verified as accurate (confidence 2) [594E36A9], AccurateRip returned [D0C1FA89]

No tracks could be verified as accurate
You may have a different pressing from the one(s) in the database

End of status report


cue
REM GENRE "Heavy Metal"
REM DATE 2004
REM DISCID 830AF20A
REM COMMENT "ExactAudioCopy v0.99pb5"
PERFORMER "Attacker"
TITLE "Soul Taker"
FILE "Attacker - Soul Taker.flac" WAVE
TRACK 01 AUDIO
TITLE "The End"
PERFORMER "Attacker"
INDEX 01 00:00:00
TRACK 02 AUDIO
TITLE "Forgotten"
PERFORMER "Attacker"
INDEX 00 03:06:03
INDEX 01 03:06:71
TRACK 03 AUDIO
TITLE "Sleepy Hollow"
PERFORMER "Attacker"
INDEX 00 07:18:15
INDEX 01 07:19:59
TRACK 04 AUDIO
TITLE "Tortured Existence"
PERFORMER "Attacker"
INDEX 00 09:47:31
INDEX 01 09:48:63
TRACK 05 AUDIO
TITLE "Soul Taker"
PERFORMER "Attacker"
INDEX 00 14:18:23
INDEX 01 14:19:68
TRACK 06 AUDIO
TITLE "Jack"
PERFORMER "Attacker"
INDEX 00 21:14:12
INDEX 01 21:15:27
TRACK 07 AUDIO
TITLE "The Conquerors"
PERFORMER "Attacker"
INDEX 00 26:06:58
INDEX 01 26:09:05
TRACK 08 AUDIO
TITLE "Return to Mordor"
PERFORMER "Attacker"
INDEX 00 30:24:34
INDEX 01 30:26:38
TRACK 09 AUDIO
TITLE "Raging Fist"
PERFORMER "Attacker"
INDEX 00 36:08:14
INDEX 01 36:10:43
TRACK 10 AUDIO
TITLE "Until We Meet Again"
PERFORMER "Attacker"
INDEX 00 40:48:04
INDEX 01 40:49:26


spectrum
Attachment:
spectrum.jpg
spectrum.jpg [ 376.55 KiB | Viewed 113 times ]

_________________


Top
 Profile E-mail  
 
 
PostPosted: 21 Sep 2011 
Хиппей (support team)
User avatar
Joined: 30 Jul 2007
Posts: 114953
Lоcаtion: Киев (Kyiv, UA)
Age: 46
Name: Andrey
oldrocker wrote:
Лимит не лимит, 10 баллов - это эталонный альбом, просто так такие оценки нельзя раздавать. Я такие оценки мало кому поставлю, а жанр без разницы, хоть глэм хоть амер.пауэр.

Я с недавних пор оцениваю весь альбом по 10 балльной шкале, отминусовывая не понравившиеся лично мне композиции или музыкальные моменты, вокальные партии.
На то мы все и по-разному воспринимаем музыку.
У каждого будет всегда своя десятка лучших альбомов или песен. И даже она у каждого со временем меняется.
Если мы сейчас начнём спорить, что такое эталонный альбом, то зайдем в тупик. Проверено не раз и не двести раз :cow:

На данный момент я эту работу оценил именно так. Если посмотреть мои краткие отчёты по другим группам и альбомам, то они часто через несколько дней, месяцев или лет меняются то в плюс, то в минус. Многое зависит от настроения и желания слушать альбом. А так же от "устаревания" материала и отношения к самой группе.

Тебе удается каким-то образом очень скурпулёзно сразу же выдать альбому оценку, написать благоухающее, информационное и очень приятно читающееся ревью. И всё.
Я ж не буду считать твои прекрасные рецензии как истину, блин, в последней инстанции? Нет, конечно, послушаю его сам и уже соглашусь с тобой или нет :pardon: Так же сейчас поступаешь и ты. Мы тихо обговариваем каждую деталь, а остальные смотрять и ковыряют в носу. Это их право :dance: Некоторые даже читают, но ответить не могут, или лень, ибо им просто не дано (есть такие типажи, которым вообще сложно из себя пару слов выдавить по прослушанному материалу в письменном виде, и их большинство к сожалению), или сказать больше нечего.


Лиззи Борден - попса, сорри. Как я и предполагал. А это ващь мне вообще напомнила... Kingdom Come :shok:
Кстати, я кажись их видео-бутлег здесь перезаливал... Борденов, конечно же, а не Камов.

_________________


Top
 Profile E-mail  
 
 
PostPosted: 21 Sep 2011 
консэрваторъ
User avatar
Joined: 11 Aug 2007
Posts: 17313
Lоcаtion: Псков
Age: 45
Name: Сергей
Scatterbrain wrote:
Если мы сейчас начнём спорить, что такое эталонный альбом, то зайдем в тупик

Чего тут спорить, это и так все знают... с крестиками... :blum: :crazy:

_________________
THRASH 'EM ALL


Top
 Profile E-mail  
 
 
PostPosted: 21 Sep 2011 
Хиппей (support team)
User avatar
Joined: 30 Jul 2007
Posts: 114953
Lоcаtion: Киев (Kyiv, UA)
Age: 46
Name: Andrey
splatty wrote:
Scatterbrain wrote:
Если мы сейчас начнём спорить, что такое эталонный альбом, то зайдем в тупик

Чего тут спорить, это и так все знают... с крестиками... :blum: :crazy:

Этот?

Image

:dance:

_________________


Top
 Profile E-mail  
 
 
PostPosted: 21 Sep 2011 
Анатолий
User avatar
Joined: 18 Oct 2008
Posts: 3573
Lоcаtion: Армавир
Age: 42
Name: Анатолий
К вопросу о простеньком NWOBHM:

[youtube]ozKOawa-3sE&feature[/youtube]

[youtube]Mycfq4h11Fc&feature[/youtube]


Top
 Profile E-mail  
 
 
PostPosted: 21 Sep 2011 
Доктор энтомологии
User avatar
Joined: 22 Jan 2009
Posts: 9927
Lоcаtion: Даугавпилс
Age: 44
Name: Алексей
вау! холокауст это - БАЛЬЗАМ!


Top
 Profile  
 
 
PostPosted: 21 Sep 2011 
Хиппей (support team)
User avatar
Joined: 30 Jul 2007
Posts: 114953
Lоcаtion: Киев (Kyiv, UA)
Age: 46
Name: Andrey
Ну и?

Мне, например, вот эти недооцененные герои нравятся :dance:

phpBB [youtube]

_________________


Top
 Profile E-mail  
 
Display posts from previous:  Sort by  
Post new topic Reply to topic  [ 26 posts ]  Go to page Previous  1, 2

All times are UTC + 3 hours


Who is online

Users browsing this forum: No registered users and 2 guests


You cannot post new topics in this forum
You cannot reply to topics in this forum
You cannot edit your posts in this forum
You cannot delete your posts in this forum
You cannot post attachments in this forum

Search for:
Яндекс.Метрика
Powered by phpBB © 2000, 2002, 2005, 2007 phpBB Group