\m/ 80's metal \m/

Информационно-аналитический форум "80 см пыли" (In Search We Trust) "У нас никто никуда не спешит"
Me For You - http://me-4u.com
It is currently 19 Dec 2018

All times are UTC + 3 hours

Spoiler
Chat - temporary registration for foreign users (please leave your application here)







Post new topic Reply to topic  [ 13 posts ] 
Author Message
 
PostPosted: 10 Jul 2009 
Анатолий
User avatar
Joined: 18 Oct 2008
Posts: 3258
Lоcаtion: Армавир
Age: 41
Name: Анатолий
220 Volt - "220 Volt" - 1983

Image

Genre: Heavy Metal
Location: Sweden
Format: ape+cue+log+scans
Size: 271 Mb

Line-up:
J.Lundholm - vocals
T.Drevin - guitar
M.Karlsson - guitar
M.Larsson - bass
P.Hermansson - drums

1. Lonely Nights 04:31
2. No Return 05:55
3. The End of the World 05:26
4. Gypsy Queen 03:47
5. Nightwinds 05:58
6. Child of the Night 02:47
7. Stop and Look Back 04:47
8. Prisoner of War 02:53
9. Woman in White 03:14
Total playing time 39:18

отчёт EAC
Exact Audio Copy V0.99 prebeta 4 from 23. January 2008

Отчёт EAC об извлечении, выполненном 15. июня 2009, 16:11

220 VOLT / 220 Volt

Дисковод: MATSHITADVD-RAM UJ-861H Adapter: 0 ID: 0

Режим чтения : Достоверность
Использование точного потока : Да
Отключение кэша аудио : Да
Использование указателей C2 : Нет

Коррекция смещения при чтении : 102
Способность читать области Lead-in и Lead-out : Нет
Заполнение пропущенных сэмплов тишиной : Да
Удаление блоков с тишиной в начале и конце : Нет
При вычислениях CRC использовались нулевые сэмплы : Да
Интерфейс : Встроенный Win32-интерфейс для Win NT/2000

Выходной формат : Внутренние WAV-операции
Формат сэмплов : 44.100 Гц; 16 бит; стерео


TOC извлечённого CD

Трек | Старт | Длительность | Начальный сектор | Конечный сектор
---------------------------------------------------------------------
1 | 0:00.00 | 4:31.55 | 0 | 20379
2 | 4:31.55 | 5:55.40 | 20380 | 47044
3 | 10:27.20 | 5:26.05 | 47045 | 71499
4 | 15:53.25 | 3:47.29 | 71500 | 88553
5 | 19:40.54 | 5:58.36 | 88554 | 115439
6 | 25:39.15 | 2:47.22 | 115440 | 127986
7 | 28:26.37 | 4:47.53 | 127987 | 149564
8 | 33:14.15 | 2:55.17 | 149565 | 162706
9 | 36:09.32 | 3:15.30 | 162707 | 177361


Характеристики диапазона извлечения и сообщения об ошибках

Выбранный диапазон

Имя файла D:\Исходные торренты\220 VOLT - 220 Volt.wav

Пиковый уровень 100.0 %
Качество диапазона 100.0 %
CRC копии 28D87131
Копирование... OK

Ошибок не произошло


AccurateRip: сводка

Трек 1 точность не определена (достоверность 1) [1F0E6EB4], AccurateRip вернул [058EB3A0]
Трек 2 точность не определена (достоверность 1) [C94A9408], AccurateRip вернул [1A2A7D18]
Трек 3 точность не определена (достоверность 1) [F5F951C3], AccurateRip вернул [18A1EABF]
Трек 4 точность не определена (достоверность 1) [4A77F53B], AccurateRip вернул [54285AE7]
Трек 5 точность не определена (достоверность 1) [E082AF38], AccurateRip вернул [B2F86B28]
Трек 6 точность не определена (достоверность 1) [494C3CF1], AccurateRip вернул [035FADCD]
Трек 7 точность не определена (достоверность 1) [91EB5AD8], AccurateRip вернул [720E7DA0]
Трек 8 точность не определена (достоверность 1) [AEA07348], AccurateRip вернул [00C87038]
Трек 9 точность не определена (достоверность 1) [E6729038], AccurateRip вернул [F5618558]

Ни один трек не прошёл проверки на точность
В вашей базе может быть иной вариант штамповки диска

Конец отчёта


Spectrum
Image


http://ifolder.ru/13049283
http://ifolder.ru/13052120
http://ifolder.ru/13046807

P.S. Рип без косяков!

Спасибо торрентам!!!


Top
 Profile E-mail  
 
 
PostPosted: 19 Jul 2009 
udo
User avatar
Joined: 01 Mar 2008
Posts: 2343
Lоcаtion: Краснодар
Age: 48
Name: РОМАН
спасибо Толян


Top
 Profile E-mail  
 
 
PostPosted: 19 Jul 2009 
Анатолий
User avatar
Joined: 18 Oct 2008
Posts: 3258
Lоcаtion: Армавир
Age: 41
Name: Анатолий
odu

Было бы на пользу! ;)


Top
 Profile E-mail  
 
 
PostPosted: 20 Jul 2009 
Thrasher
User avatar
Joined: 07 Oct 2007
Posts: 2756
Lоcаtion: Russia, Moscow
Age: 34
Name: Drunk & Evil
Privateer wrote:
odu

Было бы на пользу! ;)


ну такой МЕТАЛ всегда на пользу :thanx: :true:

_________________
ВОДКА, БАБЫ И БЛЮЗ / 40° till death... :bodun:
One time we saw some hookers, but when we got closer, we realised it was Mötley Crüe. ©


Top
 Profile  
 
 
PostPosted: 20 Jul 2009 
Анатолий
User avatar
Joined: 18 Oct 2008
Posts: 3258
Lоcаtion: Армавир
Age: 41
Name: Анатолий
-=KazgorotH=- wrote:
ну такой МЕТАЛ всегда на пользу :thanx: :true:


И слава Богу! :true: Самому нравится! :true: :meloman:


Top
 Profile E-mail  
 
 
PostPosted: 28 Mar 2010 
metallpaparazzy
User avatar
Joined: 20 Dec 2009
Posts: 674
Lоcаtion: Днепропетровск
Age: 43
Name: Геннадий
удален... :dash: а жаль :cry:


Top
 Profile E-mail  
 
 
PostPosted: 19 Oct 2010 
Пионэръ
Joined: 22 Jun 2010
Posts: 16
Lоcаtion: Madrid
Name: Xose
Files have been deleted :dash:


Top
 Profile E-mail  
 
 
PostPosted: 19 Oct 2010 
Хиппей (support team)
User avatar
Joined: 30 Jul 2007
Posts: 109003
Lоcаtion: Киев (Kyiv, UA)
Age: 45
Name: Andrey
Перезалейте, пожалуйста, кто-нибудь. Здесь http://rutracker.org/forum/viewtopic.php?t=1934244 сидов нет :oops:

_________________


Top
 Profile E-mail  
 
 
PostPosted: 05 Nov 2010 
Alive Again
User avatar
Joined: 17 Dec 2008
Posts: 4744
Lоcаtion: Курск Воронеж Оскол
Age: 44
Name: Дмитрий
Scatterbrain wrote:
Перезалейте, пожалуйста, кто-нибудь. Здесь http://rutracker.org/forum/viewtopic.php?t=1934244 сидов нет :oops:


220 VOLT - 220 Volt / APE+CUE+Log / megaupload.com


Top
 Profile E-mail  
 
 
PostPosted: 05 Nov 2010 
Хиппей (support team)
User avatar
Joined: 30 Jul 2007
Posts: 109003
Lоcаtion: Киев (Kyiv, UA)
Age: 45
Name: Andrey
Дима, спасибо :thanx:

_________________


Top
 Profile E-mail  
 
 
PostPosted: 16 Mar 2012 
Трешер
User avatar
Joined: 25 Feb 2011
Posts: 1062
Lоcаtion: Харьков
Age: 42
Name: Aleksandr
Scatterbrain wrote:
Перезалейте, пожалуйста, кто-нибудь. Здесь http://rutracker.org/forum/viewtopic.php?t=1934244 сидов нет :oops:


Будут :smile: Закачка идёт слабо но идёт http://rutracker.org/forum/viewtopic.php?t=1934244


Top
 Profile E-mail  
 
 
PostPosted: 17 Mar 2012 
Хиппей (support team)
User avatar
Joined: 30 Jul 2007
Posts: 109003
Lоcаtion: Киев (Kyiv, UA)
Age: 45
Name: Andrey
Заранее спасибо :dance:
Я присоединяться пока не буду - места нету. Мож завтра приклеюсь :sp:

_________________


Top
 Profile E-mail  
 
 
PostPosted: 17 Mar 2013 
Хиппей (support team)
User avatar
Joined: 30 Jul 2007
Posts: 109003
Lоcаtion: Киев (Kyiv, UA)
Age: 45
Name: Andrey
Кстати, весьма неожиданно было выяснить, что альбом то ого как неплох :dance:
Раньше его не слушал. Второй или третьи релизы группы помню. Тогда показались жуткой попсой :yyy:
А вот дебютник сейчас понравился - почти чистый хэви мэтал :dance: :true:

mirror: MultiUp l Narod

Взято с торрента. Ссылка чуть выше :thanx:

log
Exact Audio Copy V0.99 prebeta 4 from 23. January 2008

Отчёт EAC об извлечении, выполненном 15. июня 2009, 16:11

220 VOLT / 220 Volt

Дисковод: MATSHITADVD-RAM UJ-861H Adapter: 0 ID: 0

Режим чтения : Достоверность
Использование точного потока : Да
Отключение кэша аудио : Да
Использование указателей C2 : Нет

Коррекция смещения при чтении : 102
Способность читать области Lead-in и Lead-out : Нет
Заполнение пропущенных сэмплов тишиной : Да
Удаление блоков с тишиной в начале и конце : Нет
При вычислениях CRC использовались нулевые сэмплы : Да
Интерфейс : Встроенный Win32-интерфейс для Win NT/2000

Выходной формат : Внутренние WAV-операции
Формат сэмплов : 44.100 Гц; 16 бит; стерео


TOC извлечённого CD

Трек | Старт | Длительность | Начальный сектор | Конечный сектор
---------------------------------------------------------------------
1 | 0:00.00 | 4:31.55 | 0 | 20379
2 | 4:31.55 | 5:55.40 | 20380 | 47044
3 | 10:27.20 | 5:26.05 | 47045 | 71499
4 | 15:53.25 | 3:47.29 | 71500 | 88553
5 | 19:40.54 | 5:58.36 | 88554 | 115439
6 | 25:39.15 | 2:47.22 | 115440 | 127986
7 | 28:26.37 | 4:47.53 | 127987 | 149564
8 | 33:14.15 | 2:55.17 | 149565 | 162706
9 | 36:09.32 | 3:15.30 | 162707 | 177361


Характеристики диапазона извлечения и сообщения об ошибках

Выбранный диапазон

Имя файла D:\Исходные торренты\220 VOLT - 220 Volt.wav

Пиковый уровень 100.0 %
Качество диапазона 100.0 %
CRC копии 28D87131
Копирование... OK

Ошибок не произошло


AccurateRip: сводка

Трек 1 точность не определена (достоверность 1) [1F0E6EB4], AccurateRip вернул [058EB3A0]
Трек 2 точность не определена (достоверность 1) [C94A9408], AccurateRip вернул [1A2A7D18]
Трек 3 точность не определена (достоверность 1) [F5F951C3], AccurateRip вернул [18A1EABF]
Трек 4 точность не определена (достоверность 1) [4A77F53B], AccurateRip вернул [54285AE7]
Трек 5 точность не определена (достоверность 1) [E082AF38], AccurateRip вернул [B2F86B28]
Трек 6 точность не определена (достоверность 1) [494C3CF1], AccurateRip вернул [035FADCD]
Трек 7 точность не определена (достоверность 1) [91EB5AD8], AccurateRip вернул [720E7DA0]
Трек 8 точность не определена (достоверность 1) [AEA07348], AccurateRip вернул [00C87038]
Трек 9 точность не определена (достоверность 1) [E6729038], AccurateRip вернул [F5618558]

Ни один трек не прошёл проверки на точность
В вашей базе может быть иной вариант штамповки диска

Конец отчёта

cue
REM GENRE "Hard Rock"
REM DATE 1983
REM DISCID 7D093C09
REM COMMENT "ExactAudioCopy v0.99pb4"
PERFORMER "220 VOLT"
TITLE "220 Volt"
FILE "220 VOLT - 220 Volt.wav" WAVE
TRACK 01 AUDIO
TITLE "Lonely Nights"
PERFORMER "220 VOLT"
INDEX 01 00:00:00
TRACK 02 AUDIO
TITLE "No Return"
PERFORMER "220 VOLT"
INDEX 00 04:30:05
INDEX 01 04:31:55
TRACK 03 AUDIO
TITLE "The End Of The World"
PERFORMER "220 VOLT"
INDEX 00 10:25:02
INDEX 01 10:27:20
TRACK 04 AUDIO
TITLE "Gypsy Queen"
PERFORMER "220 VOLT"
INDEX 00 15:51:22
INDEX 01 15:53:25
TRACK 05 AUDIO
TITLE "Nightwinds"
PERFORMER "220 VOLT"
INDEX 00 19:38:45
INDEX 01 19:40:54
TRACK 06 AUDIO
TITLE "Child Of The Night"
PERFORMER "220 VOLT"
INDEX 00 25:37:00
INDEX 01 25:39:15
TRACK 07 AUDIO
TITLE "Stop And Look Back"
PERFORMER "220 VOLT"
INDEX 00 28:25:00
INDEX 01 28:26:37
TRACK 08 AUDIO
TITLE "Prisoner Of War"
PERFORMER "220 VOLT"
INDEX 00 33:12:50
INDEX 01 33:14:15
TRACK 09 AUDIO
TITLE "Woman In White"
PERFORMER "220 VOLT"
INDEX 00 36:07:17
INDEX 01 36:09:32


no scans :vic:

Image

_________________


Top
 Profile E-mail  
 
Display posts from previous:  Sort by  
Post new topic Reply to topic  [ 13 posts ] 

All times are UTC + 3 hours


Who is online

Users browsing this forum: No registered users and 3 guests


You cannot post new topics in this forum
You cannot reply to topics in this forum
You cannot edit your posts in this forum
You cannot delete your posts in this forum
You cannot post attachments in this forum

Search for:
Яндекс.Метрика
Powered by phpBB © 2000, 2002, 2005, 2007 phpBB Group