\m/ 80's metal \m/

Информационно-аналитический форум "80 см пыли" (In Search We Trust) "У нас никто никуда не спешит"
Me For You - http://me-4u.com
It is currently 15 Dec 2018

All times are UTC + 3 hours

Spoiler
Chat - temporary registration for foreign users (please leave your application here)







Post new topic Reply to topic  [ 25 posts ]  Go to page 1, 2  Next
Author Message
 
PostPosted: 04 Dec 2013 
Rara avis
User avatar
Joined: 27 Jan 2009
Posts: 4715
Name: .
5ème Avenue - Meï-Lin
Image
Tracks:
01 - Quelle Vie!
02 - File À New York City
03 - Robe Du Soir
04 - Les Mots Justes
05 - Le Regard De Skander-Beg
06 - Femmes
07 - Another Man
08 - Meï-Lin

$49.99


Last edited by Dare-Devilina on 07 Dec 2013, edited 1 time in total.

Top
 Profile E-mail  
 
 
PostPosted: 06 Dec 2013 
Хиппей (support team)
User avatar
Joined: 30 Jul 2007
Posts: 108909
Lоcаtion: Киев (Kyiv, UA)
Age: 45
Name: Andrey
Ну и что это у нас по стилю?.. :vic:
И почему вдруг реап, а не рекс? Альбом уже где-то был выложен? :oops:

_________________


Top
 Profile E-mail  
 
 
PostPosted: 07 Dec 2013 
Rara avis
User avatar
Joined: 27 Jan 2009
Posts: 4715
Name: .
Прошу прощения, Андрей. Это просто описка. По стилю - я не знаю что это, найдем, послушаем, определим.



P.S. Ты стал слишком раздражительный...


Top
 Profile E-mail  
 
 
PostPosted: 07 Dec 2013 
Дежурный по КУПу
User avatar
Joined: 17 Aug 2007
Posts: 5870
Age: 50
Name: Ге
Он курить, наверно, бросил :shok:

_________________
http://jp-mania.ru/
http://jp-tourdates.ucoz.ru/


Top
 Profile  
 
 
PostPosted: 07 Dec 2013 
Хиппей (support team)
User avatar
Joined: 30 Jul 2007
Posts: 108909
Lоcаtion: Киев (Kyiv, UA)
Age: 45
Name: Andrey
Dare-Devilina wrote:
Это просто описка. По стилю - я не знаю что это, найдем, послушаем, определим.

Даш, тогда лучше подобное сразу в неформат постить или в раздел "Who is". Видно ж сразу, что группа не играет "metal 80's" :pardon:
Прощение... Кхм, какое слово, право... зачем оно? :shok: Не, ну я ж не карал и не шумел даже.
Бубню по делу. "Реап" вместо "рекса" так и остался висеть. Ну, блин, снова я всё буду исправлять за вас, уже далеко не новичков? :vic:

Quote:
Classification : 8 - Chanson francophone et scène française

http://opac2.pergame.net/mediatheque-al ... ite=auteur

German wrote:
Он курить, наверно, бросил :shok:

Пока бросил. Но вона смотри на фотку выше - слева внизу волосатый Владимир Машков :lloo: Неспроста это :umnik:

_________________


Top
 Profile E-mail  
 
 
PostPosted: 27 Nov 2016 
Rara avis
User avatar
Joined: 27 Jan 2009
Posts: 4715
Name: .
400 рублей...
https://meshok.net/item/49590204_5eme_AVENUE_Meï_Lin_France_rock_старое_издание


Top
 Profile E-mail  
 
 
PostPosted: 27 Nov 2016 
Работнечег
User avatar
Joined: 28 Aug 2007
Posts: 5606
Lоcаtion: г. Москва
Age: 29
Name: Дима
Если интересно, можем скинуться, купить) я как раз рядом с Бульваром Дмитрия Донского работаю, было бы удобно забрать


Top
 Profile E-mail  
 
 
PostPosted: 16 Dec 2016 
Работнечег
User avatar
Joined: 28 Aug 2007
Posts: 5606
Lоcаtion: г. Москва
Age: 29
Name: Дима
Image
Year: 1991
Label: ?
Genre: AOR
Coutry: France
Format: Flac + Log + Cue + Covers
Size: 221 Mb

Line-Up:
Nicolas De Dominicus - Guitars
Eric Thievon - Drums, Percussion
Joel Greco - Vocals
Alain Mistrali - Bass


Tracklist:
1. Quelle Vie! 04:17
2. File À New York City 04:39
3. Robe Du Soir 04:13
4. Les Mots Justes 05:19
5. Le Regard De Skander-Beg 04:24
6. Femmes 04:21
7. Another Man 03:37
8. Meï-Lin 05:51

LOG
Exact Audio Copy V0.99 prebeta 5 from 4. May 2009

EAC extraction logfile from 13. December 2016, 13:26

5e Avenue / Mei-Lin

Used drive : PIONEER DVD-RW DVR-221 Adapter: 2 ID: 1

Read mode : Secure
Utilize accurate stream : Yes
Defeat audio cache : Yes
Make use of C2 pointers : No

Read offset correction : 6
Overread into Lead-In and Lead-Out : No
Fill up missing offset samples with silence : Yes
Delete leading and trailing silent blocks : No
Null samples used in CRC calculations : Yes
Used interface : Native Win32 interface for Win NT & 2000

Used output format : User Defined Encoder
Selected bitrate : 32 kBit/s
Quality : High
Add ID3 tag : No
Command line compressor : C:\Program Files\Exact Audio Copy\Flac\flac.exe
Additional command line options : -6 -V %s


TOC of the extracted CD

Track | Start | Length | Start sector | End sector
---------------------------------------------------------
1 | 0:00.33 | 4:16.65 | 33 | 19297
2 | 4:17.23 | 4:38.65 | 19298 | 40212
3 | 8:56.13 | 4:13.00 | 40213 | 59187
4 | 13:09.13 | 5:19.17 | 59188 | 83129
5 | 18:28.30 | 4:23.45 | 83130 | 102899
6 | 22:52.00 | 4:20.43 | 102900 | 122442
7 | 27:12.43 | 3:37.05 | 122443 | 138722
8 | 30:49.48 | 5:51.10 | 138723 | 165057


Range status and errors

Selected range

Filename D:\Музыка\Lossless\5eme Avenue - Mei-Lin (1991)\5e Avenue - Mei-Lin.wav

Peak level 52.4 %
Range quality 100.0 %
Copy CRC CDBC7BBD
Copy OK

No errors occurred


AccurateRip summary

Track 1 not present in database
Track 2 not present in database
Track 3 not present in database
Track 4 not present in database
Track 5 not present in database
Track 6 not present in database
Track 7 not present in database
Track 8 not present in database

None of the tracks are present in the AccurateRip database

End of status report

CUE
REM GENRE Rock
REM DATE 1991
REM DISCID 62089808
REM COMMENT "ExactAudioCopy v0.99pb5"
PERFORMER "5e Avenue"
TITLE "Mei-Lin"
FILE "5e Avenue - Mei-Lin.flac" WAVE
TRACK 01 AUDIO
TITLE "Quelle Vie!"
PERFORMER "5e Avenue"
INDEX 00 00:00:00
INDEX 01 00:00:33
TRACK 02 AUDIO
TITLE "File A New York City"
PERFORMER "5e Avenue"
INDEX 01 04:17:23
TRACK 03 AUDIO
TITLE "Robe Du Soir"
PERFORMER "5e Avenue"
INDEX 01 08:56:13
TRACK 04 AUDIO
TITLE "Les Mots Justes"
PERFORMER "5e Avenue"
INDEX 01 13:09:13
TRACK 05 AUDIO
TITLE "Le Regard De Skander-Beg"
PERFORMER "5e Avenue"
INDEX 01 18:28:30
TRACK 06 AUDIO
TITLE "Femmes"
PERFORMER "5e Avenue"
INDEX 01 22:52:00
TRACK 07 AUDIO
TITLE "Another Man"
PERFORMER "5e Avenue"
INDEX 01 27:12:43
TRACK 08 AUDIO
TITLE "Mei-Lin"
PERFORMER "5e Avenue"
INDEX 01 30:49:48


Yadi

Куплено по просьбе Даши, так что все спасибки ей. Сложно оценить мне стиль, наверное AOR, pop. Спокойная музыка, не могу сказать, что это мое, некоторые моменты в песнях понравились, но их очень мало. А так стоит отметить бодрый можно сказать боевичок Another Man :true:
P.S. Можно с темой совместить и закрыть запрос viewtopic.php?f=134&t=11966
400 рублей пожалуй реальная цена этого диска, но никак не 50 долларов :crazy:


Top
 Profile E-mail  
 
 
PostPosted: 16 Dec 2016 
Хиппей (support team)
User avatar
Joined: 30 Jul 2007
Posts: 108909
Lоcаtion: Киев (Kyiv, UA)
Age: 45
Name: Andrey
:thanx:

mirror: iFolder l Narod l M-Cloud




Темы объединены.

_________________


Top
 Profile E-mail  
 
 
PostPosted: 16 Dec 2016 
спирт 100%
User avatar
Joined: 22 Sep 2008
Posts: 4328
Age: 47
Name: Саня
Всем , СПАСИБО! :thanx:


Top
 Profile  
 
 
PostPosted: 17 Dec 2016 
консэрваторъ
Joined: 11 Aug 2007
Posts: 16320
Lоcаtion: Псков
Age: 44
Name: Сергей
А точно название группы на букву 5 начинается?.. :oops:

_________________
THRASH 'EM ALL


Top
 Profile E-mail  
 
 
PostPosted: 17 Dec 2016 
Rara avis
User avatar
Joined: 27 Jan 2009
Posts: 4715
Name: .
Как-то даже сомнений не было. Сергей, посмотри фотку в первом сообщении. На заднике четко видна цифра 5


Top
 Profile E-mail  
 
 
PostPosted: 18 Dec 2016 
Хиппей (support team)
User avatar
Joined: 30 Jul 2007
Posts: 108909
Lоcаtion: Киев (Kyiv, UA)
Age: 45
Name: Andrey
Ой, не-не, дичайший неформат.
Французский шансон плюс AOR лёгкий и ещё куча всего, это не точно не для данного раздела :fingal:

зы. Но альбом дослушаю и не раз полностью прослушаю, явно.

_________________


Top
 Profile E-mail  
 
 
PostPosted: 18 Dec 2016 
Хиппей (support team)
User avatar
Joined: 30 Jul 2007
Posts: 108909
Lоcаtion: Киев (Kyiv, UA)
Age: 45
Name: Andrey
Да, а откель то баба на вокале взялась, да еще французском?
Иди снова... мальчик такой? :lloo:

_________________


Top
 Profile E-mail  
 
 
PostPosted: 18 Dec 2016 
Хиппей (support team)
User avatar
Joined: 30 Jul 2007
Posts: 108909
Lоcаtion: Киев (Kyiv, UA)
Age: 45
Name: Andrey
church wrote:
Joel Greco - Vocals

... :fingal: :cry: ...

_________________


Top
 Profile E-mail  
 
 
PostPosted: 18 Dec 2016 
Хиппей (support team)
User avatar
Joined: 30 Jul 2007
Posts: 108909
Lоcаtion: Киев (Kyiv, UA)
Age: 45
Name: Andrey
Ок, всё же тема переносится в AOR-раздел.
Есть гитарки здесь рок-музыкальные :punko:

_________________


Top
 Profile E-mail  
 
 
PostPosted: 18 Dec 2016 
Хиппей (support team)
User avatar
Joined: 30 Jul 2007
Posts: 108909
Lоcаtion: Киев (Kyiv, UA)
Age: 45
Name: Andrey
Тьху, никуда она не переносится из Бухты. Просто помещается стиль как неформатный :pardon:

_________________


Top
 Profile E-mail  
 
 
PostPosted: 18 Dec 2016 
Хиппей (support team)
User avatar
Joined: 30 Jul 2007
Posts: 108909
Lоcаtion: Киев (Kyiv, UA)
Age: 45
Name: Andrey
church wrote:
А так стоит отметить бодрый можно сказать боевичок Another Man :true:

Ага, почти стандартный хард-рок и единственная песня не на французском, а на инглише. Явно ею и планировали заманивать наивных рокеров-меломанов :kro:
Да, и вокал здесь звучит более мужественно, что-ли... Надо бы песенку в куда-надо отнести на форум.

_________________


Top
 Profile E-mail  
 
 
PostPosted: 03 Jan 2017 
Хиппей (support team)
User avatar
Joined: 30 Jul 2007
Posts: 108909
Lоcаtion: Киев (Kyiv, UA)
Age: 45
Name: Andrey

_________________


Top
 Profile E-mail  
 
 
PostPosted: 03 Jan 2017 
Работнечег
User avatar
Joined: 28 Aug 2007
Posts: 5606
Lоcаtion: г. Москва
Age: 29
Name: Дима
Спасибо за выкладку на ютуб, Андрюх!


Top
 Profile E-mail  
 
Display posts from previous:  Sort by  
Post new topic Reply to topic  [ 25 posts ]  Go to page 1, 2  Next

All times are UTC + 3 hours


Who is online

Users browsing this forum: No registered users and 1 guest


You cannot post new topics in this forum
You cannot reply to topics in this forum
You cannot edit your posts in this forum
You cannot delete your posts in this forum
You cannot post attachments in this forum

Search for:
Яндекс.Метрика
Powered by phpBB © 2000, 2002, 2005, 2007 phpBB Group