\m/ 80's metal \m/

Информационно-аналитический форум "80 см пыли" (In Search We Trust) "У нас никто никуда не спешит"
Me For You - http://me-4u.com
It is currently 17 Dec 2018

All times are UTC + 3 hours

Spoiler
Chat - temporary registration for foreign users (please leave your application here)







Post new topic Reply to topic  [ 1 post ] 
Author Message
 
PostPosted: 19 Mar 2013 
Хиппей (support team)
User avatar
Joined: 30 Jul 2007
Posts: 108957
Lоcаtion: Киев (Kyiv, UA)
Age: 45
Name: Andrey
220 Volt - 1997 - Lethal Illusion [ape]

Image

Genre: Hard Rock
Location: Sweden
Format: ape + cue + log + no scans
Size: 427 Mb


    1. Lethal Illusion
    2. Don't You Believe Me
    3. Chicago
    4. Private Queen
    5. Good For Me
    6. Shotgun Sally
    7. Disappointed
    8. The Great Escape
    9. Big Business
    10. Before You Go
    11. Scene of the Crime
    12. What Have I Done
    13. Prisoner of War
    14. Sauron

    TPT: 59:23

Простите, но... альбом на очень большого фэна группы. Не в плане веса, естественно.
В смысле - мне не понравилось :pardon:

Спасибо торрентам за рип :thanx:

MultiUp l Narod

log
Exact Audio Copy V0.99 prebeta 4 from 23. January 2008

Отчёт EAC об извлечении, выполненном 15. июня 2009, 11:52

220 VOLT / Lethal Illusion

Дисковод: MATSHITADVD-RAM UJ-861H Adapter: 0 ID: 0

Режим чтения : Достоверность
Использование точного потока : Да
Отключение кэша аудио : Да
Использование указателей C2 : Нет

Коррекция смещения при чтении : 102
Способность читать области Lead-in и Lead-out : Нет
Заполнение пропущенных сэмплов тишиной : Да
Удаление блоков с тишиной в начале и конце : Нет
При вычислениях CRC использовались нулевые сэмплы : Да
Интерфейс : Встроенный Win32-интерфейс для Win NT/2000

Выходной формат : Внутренние WAV-операции
Формат сэмплов : 44.100 Гц; 16 бит; стерео


TOC извлечённого CD

Трек | Старт | Длительность | Начальный сектор | Конечный сектор
---------------------------------------------------------------------
1 | 0:00.00 | 6:05.00 | 0 | 27374
2 | 6:05.00 | 3:52.30 | 27375 | 44804
3 | 9:57.30 | 3:57.02 | 44805 | 62581
4 | 13:54.32 | 4:15.48 | 62582 | 81754
5 | 18:10.05 | 3:49.47 | 81755 | 98976
6 | 21:59.52 | 3:34.18 | 98977 | 115044
7 | 25:33.70 | 4:34.07 | 115045 | 135601
8 | 30:08.02 | 4:46.03 | 135602 | 157054
9 | 34:54.05 | 4:39.12 | 157055 | 177991
10 | 39:33.17 | 4:09.60 | 177992 | 196726
11 | 43:43.02 | 4:19.73 | 196727 | 216224
12 | 48:03.00 | 4:40.07 | 216225 | 237231
13 | 52:43.07 | 2:53.43 | 237232 | 250249
14 | 55:36.50 | 3:51.57 | 250250 | 267631


Характеристики диапазона извлечения и сообщения об ошибках

Выбранный диапазон

Имя файла D:\Исходные торренты\220 VOLT - Lethal Illusion.wav

Пиковый уровень 99.2 %
Качество диапазона 100.0 %
CRC копии 2E4C16DC
Копирование... OK

Ошибок не произошло


AccurateRip: сводка

Трек 1 нет в базе данных
Трек 2 нет в базе данных
Трек 3 нет в базе данных
Трек 4 нет в базе данных
Трек 5 нет в базе данных
Трек 6 нет в базе данных
Трек 7 нет в базе данных
Трек 8 нет в базе данных
Трек 9 нет в базе данных
Трек 10 нет в базе данных
Трек 11 нет в базе данных
Трек 12 нет в базе данных
Трек 13 нет в базе данных
Трек 14 нет в базе данных

Ни одного трека нет в базе AccurateRip

Конец отчёта

cue
REM GENRE "Hard Rock"
REM DATE 1997
REM DISCID CD0DF00E
REM COMMENT "ExactAudioCopy v0.99pb4"
PERFORMER "220 VOLT"
TITLE "Lethal Illusion"
FILE "220 VOLT - Lethal Illusion.wav" WAVE
TRACK 01 AUDIO
TITLE "Lethal Illusion"
PERFORMER "220 VOLT"
INDEX 01 00:00:00
TRACK 02 AUDIO
TITLE "Don't You Believe Me"
PERFORMER "220 VOLT"
INDEX 00 06:03:60
INDEX 01 06:05:00
TRACK 03 AUDIO
TITLE "Chicago"
PERFORMER "220 VOLT"
INDEX 00 09:55:60
INDEX 01 09:57:30
TRACK 04 AUDIO
TITLE "Private Queen"
PERFORMER "220 VOLT"
INDEX 00 13:52:55
INDEX 01 13:54:32
TRACK 05 AUDIO
TITLE "Good For Me"
PERFORMER "220 VOLT"
INDEX 01 18:10:05
TRACK 06 AUDIO
TITLE "Shotgun Sally"
PERFORMER "220 VOLT"
INDEX 00 21:58:42
INDEX 01 21:59:52
TRACK 07 AUDIO
TITLE "Disappointed"
PERFORMER "220 VOLT"
INDEX 00 25:31:15
INDEX 01 25:33:70
TRACK 08 AUDIO
TITLE "The Great Escape"
PERFORMER "220 VOLT"
INDEX 00 30:05:60
INDEX 01 30:08:02
TRACK 09 AUDIO
TITLE "Big Business"
PERFORMER "220 VOLT"
INDEX 00 34:51:47
INDEX 01 34:54:05
TRACK 10 AUDIO
TITLE "Before You Go"
PERFORMER "220 VOLT"
INDEX 01 39:33:17
TRACK 11 AUDIO
TITLE "Scene Of The Crime"
PERFORMER "220 VOLT"
INDEX 00 43:41:42
INDEX 01 43:43:02
TRACK 12 AUDIO
TITLE "What Have I Done"
PERFORMER "220 VOLT"
INDEX 01 48:03:00
TRACK 13 AUDIO
TITLE "Prisoner Of War"
PERFORMER "220 VOLT"
INDEX 00 52:41:20
INDEX 01 52:43:07
TRACK 14 AUDIO
TITLE "Sauron"
PERFORMER "220 VOLT"
INDEX 01 55:36:50


Image

_________________


Top
 Profile E-mail  
 
Display posts from previous:  Sort by  
Post new topic Reply to topic  [ 1 post ] 

All times are UTC + 3 hours


Who is online

Users browsing this forum: No registered users and 1 guest


You cannot post new topics in this forum
You cannot reply to topics in this forum
You cannot edit your posts in this forum
You cannot delete your posts in this forum
You cannot post attachments in this forum

Search for:
Яндекс.Метрика
Powered by phpBB © 2000, 2002, 2005, 2007 phpBB Group