\m/ 80's metal \m/

Информационно-аналитический форум "80 см пыли" (In Search We Trust) "У нас никто никуда не спешит"
Me For You - http://me-4u.com
It is currently 19 Nov 2018

All times are UTC + 3 hours

Spoiler
Chat - temporary registration for foreign users (please leave your application here)







Post new topic Reply to topic  [ 267 posts ]  Go to page Previous  1, 2, 3, 4, 5, 6, 7 ... 14  Next
Author Message
 
PostPosted: 03 Nov 2009 
Metal Collector
User avatar
Joined: 16 Nov 2008
Posts: 1230
Lоcаtion: Химки
Age: 35
Name: Андрей
Просто Егор релизит иногда там, я и подумал, что ему труда не составит скачать сей релиз самому :)


Top
 Profile E-mail  
 
 
PostPosted: 03 Nov 2009 
Thrasher
User avatar
Joined: 07 Oct 2007
Posts: 2756
Lоcаtion: Russia, Moscow
Age: 34
Name: Drunk & Evil
Ну скачалось это дело, чо мне дальше с ним делать?

_________________
ВОДКА, БАБЫ И БЛЮЗ / 40° till death... :bodun:
One time we saw some hookers, but when we got closer, we realised it was Mötley Crüe. ©


Top
 Profile  
 
 
PostPosted: 03 Nov 2009 
Power Metal Maniac
User avatar
Joined: 09 Aug 2008
Posts: 6356
Lоcаtion: Москва
Age: 40
Name: Егор
Terrion
вот раза 3 этот Missing Tracks просматривал , Фуги не находил.. написано там по-другому. :oops:

_________________
Long Live Metal!


Top
 Profile  
 
 
PostPosted: 03 Nov 2009 
*** Умер ***
User avatar
Joined: 25 Apr 2009
Posts: 2188
Lоcаtion: Санкт-Петербург
Age: 33
Name: Кирилл
splatty
Оформил,мой запрос ещё на первой странице.


Top
 Profile E-mail  
 
 
PostPosted: 03 Nov 2009 
консэрваторъ
Joined: 11 Aug 2007
Posts: 16199
Lоcаtion: Псков
Age: 44
Name: Сергей
-=KazgorotH=- wrote:
чо мне дальше с ним делать?

1. Смотришь первый пост
2. Если видишь, что есть что-то из скачанного тобой в розыске, то акуратно отрезаешь от лося этот кусочек и заливаешь на ФО в различных форматах или хотя бы в мп3
3. Даёшь здесь сыль
всё... :vic:
Кирилл85 wrote:
мой запрос ещё на первой странице

он не правильно оформлен... :oops: viewtopic.php?p=69937#p69937

_________________
THRASH 'EM ALL


Top
 Profile E-mail  
 
 
PostPosted: 03 Nov 2009 
*** Умер ***
User avatar
Joined: 25 Apr 2009
Posts: 2188
Lоcаtion: Санкт-Петербург
Age: 33
Name: Кирилл
Ещё раз переделал :dash:


Top
 Profile E-mail  
 
 
PostPosted: 03 Nov 2009 
Thrasher
User avatar
Joined: 07 Oct 2007
Posts: 2756
Lоcаtion: Russia, Moscow
Age: 34
Name: Drunk & Evil
понятно, ща отрежу чонить :nunu:

_________________
ВОДКА, БАБЫ И БЛЮЗ / 40° till death... :bodun:
One time we saw some hookers, but when we got closer, we realised it was Mötley Crüe. ©


Top
 Profile  
 
 
PostPosted: 03 Nov 2009 
консэрваторъ
Joined: 11 Aug 2007
Posts: 16199
Lоcаtion: Псков
Age: 44
Name: Сергей
Кирилл85 wrote:
Ещё раз переделал

Всё въехал... ты ищешь часть песен с целого бонусного диска... что-то я и забыл что такие бывают... обычно на них фигня всякая ремастированная или сборники... видать здесь что-то редкое... http://metal-archives.com/release.php?id=12165
сейчас попробую добавить в список...
добавил :oops:

_________________
THRASH 'EM ALL


Top
 Profile E-mail  
 
 
PostPosted: 03 Nov 2009 
*** Умер ***
User avatar
Joined: 25 Apr 2009
Posts: 2188
Lоcаtion: Санкт-Петербург
Age: 33
Name: Кирилл
splatty wrote:
Кирилл85 wrote:
Ещё раз переделал

Всё въехал... ты ищешь часть песен с целого бонусного диска... что-то я и забыл что такие бывают... обычно на них фигня всякая ремастированная или сборники... видать здесь что-то редкое... http://metal-archives.com/release.php?id=12165
сейчас попробую добавить в список...


Да-да,именно так.


Top
 Profile E-mail  
 
 
PostPosted: 03 Nov 2009 
Thrasher
User avatar
Joined: 07 Oct 2007
Posts: 2756
Lоcаtion: Russia, Moscow
Age: 34
Name: Drunk & Evil
EG Power wrote:
Rage (Ger) - 2003 Soundchaser - 12. Fuga No.5 In D Major (Japanese bonus)
ищу в lossless


тут вавка

_________________
ВОДКА, БАБЫ И БЛЮЗ / 40° till death... :bodun:
One time we saw some hookers, but when we got closer, we realised it was Mötley Crüe. ©


Top
 Profile  
 
 
PostPosted: 03 Nov 2009 
консэрваторъ
Joined: 11 Aug 2007
Posts: 16199
Lоcаtion: Псков
Age: 44
Name: Сергей
Кирилл, спасибо, добавлено...

_________________
THRASH 'EM ALL


Top
 Profile E-mail  
 
 
PostPosted: 03 Nov 2009 
Power Metal Maniac
User avatar
Joined: 09 Aug 2008
Posts: 6356
Lоcаtion: Москва
Age: 40
Name: Егор
-=KazgorotH=-
:thanx:

_________________
Long Live Metal!


Top
 Profile  
 
 
PostPosted: 05 Nov 2009 
консэрваторъ
Joined: 11 Aug 2007
Posts: 16199
Lоcаtion: Псков
Age: 44
Name: Сергей
Кирилл85, твой бонусный диск лежит на трекере здесь http://torrents.ru/forum/viewtopic.php?t=2203134
Опять же, ищем того, кто выполнит запрос Кирилла в этой теме, т.е. качаем, отрезаем, обращаем внимание, что в запросе не весь диск, заливаем, даём ссыль на ФО...

_________________
THRASH 'EM ALL


Top
 Profile E-mail  
 
 
PostPosted: 05 Nov 2009 
Thrasher
User avatar
Joined: 07 Oct 2007
Posts: 2756
Lоcаtion: Russia, Moscow
Age: 34
Name: Drunk & Evil
качаю

_________________
ВОДКА, БАБЫ И БЛЮЗ / 40° till death... :bodun:
One time we saw some hookers, but when we got closer, we realised it was Mötley Crüe. ©


Top
 Profile  
 
 
PostPosted: 05 Nov 2009 
*** Умер ***
User avatar
Joined: 25 Apr 2009
Posts: 2188
Lоcаtion: Санкт-Петербург
Age: 33
Name: Кирилл
-=KazgorotH=-
Кирилл,вы по моему запросу качаете? :oops:


Top
 Profile E-mail  
 
 
PostPosted: 05 Nov 2009 
Thrasher
User avatar
Joined: 07 Oct 2007
Posts: 2756
Lоcаtion: Russia, Moscow
Age: 34
Name: Drunk & Evil
Кирилл85 wrote:
-=KazgorotH=-
Кирилл,вы по моему запросу качаете? :oops:


Да, вощем скачалось всё, перевел в вав, пытался ЕАКом порезать, пишит - ошибка в КУЕ :dash:

Мож я просто второй диск залью, весит он не особо много ~250метров ? :umnik:

_________________
ВОДКА, БАБЫ И БЛЮЗ / 40° till death... :bodun:
One time we saw some hookers, but when we got closer, we realised it was Mötley Crüe. ©


Top
 Profile  
 
 
PostPosted: 05 Nov 2009 
*** Умер ***
User avatar
Joined: 25 Apr 2009
Posts: 2188
Lоcаtion: Санкт-Петербург
Age: 33
Name: Кирилл
Не против :smile:


Top
 Profile E-mail  
 
 
PostPosted: 05 Nov 2009 
Thrasher
User avatar
Joined: 07 Oct 2007
Posts: 2756
Lоcаtion: Russia, Moscow
Age: 34
Name: Drunk & Evil
Кирилл85 wrote:
Не против :smile:


да причом, что интересно кидая куй в плеер. всё играется нормально :umnik:

хорошо щас тогда залью

_________________
ВОДКА, БАБЫ И БЛЮЗ / 40° till death... :bodun:
One time we saw some hookers, but when we got closer, we realised it was Mötley Crüe. ©


Top
 Profile  
 
 
PostPosted: 05 Nov 2009 
Thrasher
User avatar
Joined: 07 Oct 2007
Posts: 2756
Lоcаtion: Russia, Moscow
Age: 34
Name: Drunk & Evil
http://www.megaupload.com/?d=1515IVLA

log
Exact Audio Copy V0.99 prebeta 5 from 4. May 2009

EAC extraction logfile from 9. September 2009, 15:37

Twisted Sister / Stay Hungry (25th Anniversary Edition) (Remastered) (Disc 2)

Used drive : SlimtypeDVDRW SOSW-833S Adapter: 1 ID: 0

Read mode : Secure
Utilize accurate stream : Yes
Defeat audio cache : Yes
Make use of C2 pointers : No

Read offset correction : 6
Overread into Lead-In and Lead-Out : No
Fill up missing offset samples with silence : Yes
Delete leading and trailing silent blocks : No
Null samples used in CRC calculations : Yes
Used interface : Native Win32 interface for Win NT & 2000

Used output format : User Defined Encoder
Selected bitrate : 128 kBit/s
Quality : High
Add ID3 tag : No
Command line compressor : C:\Program Files\FLAC\flac.exe
Additional command line options : -V -8 -T "artist=%a" -T "title=%t" -T "album=%g" -T "date=%y" -T "tracknumber=%n" -T "genre=%m" %s


TOC of the extracted CD

Track | Start | Length | Start sector | End sector
---------------------------------------------------------
1 | 0:00.00 | 2:42.65 | 0 | 12214
2 | 2:42.65 | 2:25.09 | 12215 | 23098
3 | 5:07.74 | 2:47.59 | 23099 | 35682
4 | 7:55.58 | 1:45.59 | 35683 | 43616
5 | 9:41.42 | 2:00.53 | 43617 | 52669
6 | 11:42.20 | 2:14.39 | 52670 | 62758
7 | 13:56.59 | 1:42.52 | 62759 | 70460
8 | 15:39.36 | 2:10.02 | 70461 | 80212
9 | 17:49.38 | 5:08.53 | 80213 | 103365
10 | 22:58.16 | 1:42.27 | 103366 | 111042
11 | 24:40.43 | 1:44.74 | 111043 | 118916
12 | 26:25.42 | 1:29.40 | 118917 | 125631
13 | 27:55.07 | 1:39.69 | 125632 | 133125
14 | 29:35.01 | 2:36.41 | 133126 | 144866
15 | 32:11.42 | 1:58.13 | 144867 | 153729
16 | 34:09.55 | 0:24.52 | 153730 | 155581
17 | 34:34.32 | 4:23.40 | 155582 | 175346
18 | 38:57.72 | 0:30.00 | 175347 | 177596


Range status and errors

Selected range

Filename C:\JUKU\Twisted Sister - Stay Hungry (25th Anniversary Edition) (Remastered) (Disc 2).wav

Peak level 100.0 %
Range quality 99.9 %
Test CRC B7DBE3FB
Copy CRC B7DBE3FB
Copy OK

No errors occurred


AccurateRip summary

Track 1 cannot be verified as accurate (confidence 3) [54BB0C69], AccurateRip returned [94F64514]
Track 2 cannot be verified as accurate (confidence 4) [886CB4CE], AccurateRip returned [69871EFB]
Track 3 cannot be verified as accurate (confidence 4) [358F4CF6], AccurateRip returned [694DBDB2]
Track 4 cannot be verified as accurate (confidence 4) [4EA5AD93], AccurateRip returned [92E35814]
Track 5 cannot be verified as accurate (confidence 4) [CA7DB3D8], AccurateRip returned [514CEBAE]
Track 6 cannot be verified as accurate (confidence 4) [DD19C2DE], AccurateRip returned [5A8337E8]
Track 7 cannot be verified as accurate (confidence 4) [77BB736D], AccurateRip returned [225B98C5]
Track 8 cannot be verified as accurate (confidence 4) [9C085933], AccurateRip returned [75DA103A]
Track 9 cannot be verified as accurate (confidence 4) [3DAA82D4], AccurateRip returned [9E955FFE]
Track 10 cannot be verified as accurate (confidence 3) [BF1BB9D7], AccurateRip returned [AE69A434]
Track 11 cannot be verified as accurate (confidence 4) [872EC206], AccurateRip returned [B959FE44]
Track 12 cannot be verified as accurate (confidence 4) [ECD3BAA6], AccurateRip returned [593F16D7]
Track 13 cannot be verified as accurate (confidence 3) [0DA007FA], AccurateRip returned [FD22442D]
Track 14 cannot be verified as accurate (confidence 4) [96DC4A70], AccurateRip returned [211D1816]
Track 15 cannot be verified as accurate (confidence 4) [49D590A2], AccurateRip returned [87AFCF1D]
Track 16 cannot be verified as accurate (confidence 4) [A4FF2339], AccurateRip returned [D5F2682E]
Track 17 cannot be verified as accurate (confidence 4) [62085935], AccurateRip returned [6A02911D]
Track 18 cannot be verified as accurate (confidence 4) [03A88A49], AccurateRip returned [AA7BD738]

No tracks could be verified as accurate
You may have a different pressing from the one(s) in the database

End of status report

cue
REM GENRE "Hard Rock"
REM DATE 2009
REM DISCID 04093F12
REM COMMENT "ExactAudioCopy v0.99pb5"
CATALOG 0101000170130
PERFORMER "Twisted Sister"
TITLE "Stay Hungry (25th Anniversary Edition) (Remastered) (Disc 2)"
FILE "Twisted Sister - Stay Hungry (25th Anniversary Edition) (Remastered) (Disc 2).flac" WAVE
TRACK 01 AUDIO
TITLE "Death From Above"
PERFORMER "Twisted Sister"
ISRC 104083100082
FLAGS DCP
INDEX 01 00:00:00
TRACK 02 AUDIO
TITLE "Prime Motivator"
PERFORMER "Twisted Sister"
ISRC 104083100082
FLAGS DCP
INDEX 00 02:41:65
INDEX 01 02:42:65
TRACK 03 AUDIO
TITLE "We're Not Gonna Take It (Early Demo)"
PERFORMER "Twisted Sister"
ISRC 104083100082
FLAGS DCP
INDEX 01 05:07:74
TRACK 04 AUDIO
TITLE "Death Run"
PERFORMER "Twisted Sister"
ISRC 104083100082
FLAGS DCP
INDEX 01 07:55:58
TRACK 05 AUDIO
TITLE "This One's For You"
PERFORMER "Twisted Sister"
ISRC 104083100082
FLAGS DCP
INDEX 01 09:41:42
TRACK 06 AUDIO
TITLE "S.M.F. (Early Demo)"
PERFORMER "Twisted Sister"
ISRC 104083100082
FLAGS DCP
INDEX 01 11:42:20
TRACK 07 AUDIO
TITLE "We're Coming On"
PERFORMER "Twisted Sister"
ISRC 104083100082
FLAGS DCP
INDEX 01 13:56:59
TRACK 08 AUDIO
TITLE "Call My Name"
PERFORMER "Twisted Sister"
ISRC 104083100082
FLAGS DCP
INDEX 01 15:39:36
TRACK 09 AUDIO
TITLE "Burn In Hell (Early Demo)"
PERFORMER "Twisted Sister"
ISRC 104083100082
FLAGS DCP
INDEX 01 17:49:38
TRACK 10 AUDIO
TITLE "Pay The Price"
PERFORMER "Twisted Sister"
ISRC 104083100082
FLAGS DCP
INDEX 01 22:58:16
TRACK 11 AUDIO
TITLE "What's Love Without You"
PERFORMER "Twisted Sister"
ISRC 104083100082
FLAGS DCP
INDEX 00 24:39:63
INDEX 01 24:40:43
TRACK 12 AUDIO
TITLE "Our Voice Will Be Heard"
PERFORMER "Twisted Sister"
ISRC 104083100082
FLAGS DCP
INDEX 01 26:25:42
TRACK 13 AUDIO
TITLE "You Got To Fight"
PERFORMER "Twisted Sister"
ISRC 104083100082
FLAGS DCP
INDEX 01 27:55:07
TRACK 14 AUDIO
TITLE "The Price (Early Demo)"
PERFORMER "Twisted Sister"
ISRC 104083100082
FLAGS DCP
INDEX 00 29:34:01
INDEX 01 29:35:01
TRACK 15 AUDIO
TITLE "Stay Hungry (Early Demo)"
PERFORMER "Twisted Sister"
ISRC 104083100082
FLAGS DCP
INDEX 01 32:11:42
TRACK 16 AUDIO
TITLE "KMET Radio Spot (S.M.F.)"
PERFORMER "Twisted Sister"
ISRC 104083100082
FLAGS DCP
INDEX 01 34:09:55
TRACK 17 AUDIO
TITLE "30 (New Recording)"
PERFORMER "Twisted Sister"
ISRC 104083100082
FLAGS DCP
INDEX 01 34:34:32
TRACK 18 AUDIO
TITLE "Hidden Track"
PERFORMER "Twisted Sister"
ISRC 104083100082
FLAGS DCP
INDEX 01 38:57:72

_________________
ВОДКА, БАБЫ И БЛЮЗ / 40° till death... :bodun:
One time we saw some hookers, but when we got closer, we realised it was Mötley Crüe. ©


Top
 Profile  
 
 
PostPosted: 05 Nov 2009 
*** Умер ***
User avatar
Joined: 25 Apr 2009
Posts: 2188
Lоcаtion: Санкт-Петербург
Age: 33
Name: Кирилл
-=KazgorotH=-

:thanx: :true:


Top
 Profile E-mail  
 
Display posts from previous:  Sort by  
Post new topic Reply to topic  [ 267 posts ]  Go to page Previous  1, 2, 3, 4, 5, 6, 7 ... 14  Next

All times are UTC + 3 hours


Who is online

Users browsing this forum: No registered users and 2 guests


You cannot post new topics in this forum
You cannot reply to topics in this forum
You cannot edit your posts in this forum
You cannot delete your posts in this forum
You cannot post attachments in this forum

Search for:
Яндекс.Метрика
Powered by phpBB © 2000, 2002, 2005, 2007 phpBB Group