\m/ 80's metal \m/

Информационно-аналитический форум "80 см пыли" (In Search We Trust) "У нас никто никуда не спешит"
Me For You - http://me-4u.com
It is currently 21 May 2019

All times are UTC + 3 hours

Spoiler
Chat - temporary registration for foreign users (please leave your application here)







Post new topic Reply to topic  [ 45 posts ]  Go to page 1, 2, 3  Next
Author Message
 
PostPosted: 11 Feb 2010 
5-speed satisfactor
User avatar
Joined: 16 Feb 2009
Posts: 3728
Lоcаtion: New York, USA
Age: 41
Name: Leonid
Image

Deathwish ‎– At The Edge Of Damnation (1987)

Tracklist
1 In The Name Of God
2 Demonic Attack
3 At The Edge Of Damnation
4 Exorcist
5 Leaving Your Life Behind
6 Dance Of The Dead
7 For Evil Done
8 Sword Of Justice
9 Forces Of Darkness


Band:

Bass – Stuart Ranger
Drums – Brad Sims
Guitar – Dave Brunt
Vocals – Jon Van Doorn




_________________
Death rules! Metal to all who oppose!


Top
 Profile  
 
 
PostPosted: 11 Feb 2010 
Metal Collector
User avatar
Joined: 16 Nov 2008
Posts: 1242
Lоcаtion: Химки
Age: 36
Name: Андрей
:true:


Top
 Profile E-mail  
 
 
PostPosted: 11 Feb 2010 
хард н хэвщик (support team)
User avatar
Joined: 02 Jun 2008
Posts: 16881
Lоcаtion: Н.Новгород
Age: 32
Name: Артем
Quote:
Deathwih - At The Edge
:fingal: буковка S пропала куда-то


Top
 Profile  
 
 
PostPosted: 11 Feb 2010 
Генеральный thrasher
User avatar
Joined: 03 Oct 2008
Posts: 3705
Lоcаtion: Ханты-Мансийский АО
Age: 44
Name: Сергей
УРА!Спасибо,Лёня!


Top
 Profile  
 
 
PostPosted: 11 Feb 2010 
5-speed satisfactor
User avatar
Joined: 16 Feb 2009
Posts: 3728
Lоcаtion: New York, USA
Age: 41
Name: Leonid
О! А как ее вставить?

_________________
Death rules! Metal to all who oppose!


Top
 Profile  
 
 
PostPosted: 11 Feb 2010 
А может смените мне статус?..
User avatar
Joined: 17 Jan 2008
Posts: 881
Lоcаtion: Пенза
Age: 41
Name: Денис
Спасибо Леонид!!!!! :true: :true: :true:


Top
 Profile  
 
 
PostPosted: 11 Feb 2010 
дядя Миша
User avatar
Joined: 17 Oct 2008
Posts: 3115
Lоcаtion: USSR
Age: 56
Name: Khy
Благодарю! И за сканы тоже.
Прослушал , видимо винил изначально записан не совсем качественно. Такое часто встречалось в 20 веке.


Top
 Profile  
 
 
PostPosted: 11 Feb 2010 
Хиппей (support team)
User avatar
Joined: 30 Jul 2007
Posts: 112583
Lоcаtion: Киев (Kyiv, UA)
Age: 45
Name: Andrey
Спасибо! :true:

_________________


Top
 Profile E-mail  
 
 
PostPosted: 11 Feb 2010 
5-speed satisfactor
User avatar
Joined: 16 Feb 2009
Posts: 3728
Lоcаtion: New York, USA
Age: 41
Name: Leonid
VARVAAR wrote:
Прослушал , видимо винил изначально записан не совсем качественно. Такое часто встречалось в 20 веке.


Да. Я уж тут ниче не смог сделать (в сысле из говна конфетку). Остался тру к оригиналу. Был ре–релиз от Келтик Рекордс. Есть у кого?

_________________
Death rules! Metal to all who oppose!


Top
 Profile  
 
 
PostPosted: 11 Feb 2010 
А может смените мне статус?..
Joined: 03 Jul 2009
Posts: 868
Lоcаtion: Serbia
Name: Laki
metaleonid wrote:
VARVAAR wrote:
Прослушал , видимо винил изначально записан не совсем качественно. Такое часто встречалось в 20 веке.


Да. Я уж тут ниче не смог сделать (в сысле из говна конфетку). Остался тру к оригиналу. Был ре–релиз от Келтик Рекордс. Есть у кого?




I have Keltic Records version.This is edition with Original Sin . I will post it tomorrow


Top
 Profile E-mail  
 
 
PostPosted: 12 Feb 2010 
дядя Миша
User avatar
Joined: 17 Oct 2008
Posts: 3115
Lоcаtion: USSR
Age: 56
Name: Khy
Quote:
I will post it tomorrow

:true:


Top
 Profile  
 
 
PostPosted: 12 Feb 2010 
5-speed satisfactor
User avatar
Joined: 16 Feb 2009
Posts: 3728
Lоcаtion: New York, USA
Age: 41
Name: Leonid
glory11 wrote:
I have Keltic Records version.This is edition with Original Sin . I will post it tomorrow

That would be awesome!!!!

_________________
Death rules! Metal to all who oppose!


Top
 Profile  
 
 
PostPosted: 12 Feb 2010 
А может смените мне статус?..
User avatar
Joined: 17 Jan 2008
Posts: 881
Lоcаtion: Пенза
Age: 41
Name: Денис
Deathwish/Original Sin - ''At the Edge of Damnation / Sin Will Find You Out'' [2005,Keltic Records]

APE+CUE+LOG+SCANS 581 mb

Image
Image

log
EAC extraction logfile from 11. October 2007, 20:16 for CD
Deathwish / At The Edge Of Damnation

Used drive : PIONEER DVD-RW DVR-111 Adapter: 1 ID: 0
Read mode : Secure with NO C2, accurate stream, disable cache
Read offset correction : 48
Overread into Lead-In and Lead-Out : No

Used output format : C:\Program Files\EAC\MAC.EXE (Monkey's Audio Lossless Encoder)
High Lossless Compression

Other options :
Fill up missing offset samples with silence : Yes
Delete leading and trailing silent blocks : No
Native Win32 interface for Win NT & 2000


Range status and errors
Selected range
Filename C:\Program Files\EAC\Deathwish.wav

Peak level 100.0 %
Range quality 100.0 %
CRC DF1BD769
Copy OK

No errors occured

End of status report


cue
PERFORMER "Deathwish"
TITLE "At The Edge Of Damnation"
FILE "Deathwish.ape" WAVE
TRACK 01 AUDIO
TITLE "In The Name Of God"
PERFORMER "Deathwish"
INDEX 01 00:00:00
TRACK 02 AUDIO
TITLE "Demonic Attack"
PERFORMER "Deathwish"
INDEX 01 04:05:37
TRACK 03 AUDIO
TITLE "At The Edge Of Damnation"
PERFORMER "Deathwish"
INDEX 01 07:50:68
TRACK 04 AUDIO
TITLE "Exorcist"
PERFORMER "Deathwish"
INDEX 01 12:19:65
TRACK 05 AUDIO
TITLE "Leaving Your Life Behind"
PERFORMER "Deathwish"
INDEX 01 15:31:00
TRACK 06 AUDIO
TITLE "Dance Of The Dead"
PERFORMER "Deathwish"
INDEX 01 20:47:74
TRACK 07 AUDIO
TITLE "For Evil Done"
PERFORMER "Deathwish"
INDEX 01 26:04:04
TRACK 08 AUDIO
TITLE "Sword Of Justice"
PERFORMER "Deathwish"
INDEX 01 31:01:58
TRACK 09 AUDIO
TITLE "Forces Of Darkness"
PERFORMER "Deathwish"
INDEX 01 34:38:36
TRACK 10 AUDIO
TITLE "Conjuration Of The Watcher"
PERFORMER "Deathwish"
INDEX 01 43:48:23
TRACK 11 AUDIO
TITLE "The Curse"
PERFORMER "Deathwish"
INDEX 01 48:17:08
TRACK 12 AUDIO
TITLE "To The Devil Of A Daughter"
PERFORMER "Deathwish"
INDEX 01 52:02:58
TRACK 13 AUDIO
TITLE "A Slice Of Finger"
PERFORMER "Deathwish"
INDEX 01 55:12:68
TRACK 14 AUDIO
TITLE "Bitches From Hell"
PERFORMER "Deathwish"
INDEX 01 56:07:08
TRACK 15 AUDIO
TITLE "Succubus"
PERFORMER "Deathwish"
INDEX 01 58:53:22
TRACK 16 AUDIO
TITLE "Pandora's Box"
PERFORMER "Deathwish"
INDEX 01 62:45:43
TRACK 17 AUDIO
TITLE "Thunder War"
PERFORMER "Deathwish"
INDEX 01 66:15:60
TRACK 18 AUDIO
TITLE "Enchantress Of Death"
PERFORMER "Deathwish"
INDEX 01 68:12:58
TRACK 19 AUDIO
TITLE "Disease Bombs"
PERFORMER "Deathwish"
INDEX 01 72:00:30


http://www.megaupload.com/?d=N7A1DPXF


Top
 Profile  
 
 
PostPosted: 12 Feb 2010 
5-speed satisfactor
User avatar
Joined: 16 Feb 2009
Posts: 3728
Lоcаtion: New York, USA
Age: 41
Name: Leonid
:thanx: thank you. Заценю

_________________
Death rules! Metal to all who oppose!


Top
 Profile  
 
 
PostPosted: 12 Feb 2010 
Хиппей (support team)
User avatar
Joined: 30 Jul 2007
Posts: 112583
Lоcаtion: Киев (Kyiv, UA)
Age: 45
Name: Andrey
Насколько помню, на переиздании запись звучит еще хуже :fingal:

_________________


Top
 Profile E-mail  
 
 
PostPosted: 13 Feb 2010 
дядя Миша
User avatar
Joined: 17 Oct 2008
Posts: 3115
Lоcаtion: USSR
Age: 56
Name: Khy
Quote:
Deathwish/Original Sin - ''At the Edge of Damnation / Sin Will Find You Out'' [2005,Keltic Records]

:true: заслушаем.


Top
 Profile  
 
 
PostPosted: 13 Feb 2010 
.
User avatar
Joined: 25 Aug 2007
Posts: 568
Lоcаtion: Москва
Age: 107
Name: Kostolom
:thanx: Детвиш оченно уважаю.


Top
 Profile  
 
 
PostPosted: 13 Feb 2010 
Труъ
User avatar
Joined: 15 Dec 2008
Posts: 131
Lоcаtion: Донбасс
Age: 46
Name: Евгений
Cпасибо огромное за винил! :true:

klod77 wrote:
Deathwish/Original Sin - ''At the Edge of Damnation / Sin Will Find You Out'' [2005,Keltic Records]:

Для тех, кто не в курсе. На этом переиздании, Original Sin определяется как MPEG...Deathwish - At the Edge of Damnation, действительно записан отвратительно. Шелчки пофиксили и вместе с ними довольно солидно "срезали" высокие частоты...


Top
 Profile  
 
 
PostPosted: 16 Feb 2010 
Хиппей (support team)
User avatar
Joined: 30 Jul 2007
Posts: 112583
Lоcаtion: Киев (Kyiv, UA)
Age: 45
Name: Andrey
metaleonid wrote:

Зачем-то чисто случайно перезалил альбом... :oops:


Narod l M-Cloud

Внутри, как и было - только потрэковые флаки и жирные сканы.

_________________


Top
 Profile E-mail  
 
 
PostPosted: 16 Feb 2010 
Доктор энтомологии
User avatar
Joined: 22 Jan 2009
Posts: 9735
Lоcаtion: Даугавпилс
Age: 44
Name: Алексей
:thanx:


Top
 Profile  
 
Display posts from previous:  Sort by  
Post new topic Reply to topic  [ 45 posts ]  Go to page 1, 2, 3  Next

All times are UTC + 3 hours


Who is online

Users browsing this forum: No registered users and 1 guest


You cannot post new topics in this forum
You cannot reply to topics in this forum
You cannot edit your posts in this forum
You cannot delete your posts in this forum
You cannot post attachments in this forum

Search for:
Яндекс.Метрика
Powered by phpBB © 2000, 2002, 2005, 2007 phpBB Group