\m/ 80's metal \m/

Информационно-аналитический форум "80 см пыли" (In Search We Trust) "У нас никто никуда не спешит"
Me For You - http://me-4u.com
It is currently 21 May 2019

All times are UTC + 3 hours

Spoiler
Chat - temporary registration for foreign users (please leave your application here)







Post new topic Reply to topic  [ 10 posts ] 
Author Message
 
PostPosted: 01 Jul 2009 
Хиппей (support team)
User avatar
Joined: 30 Jul 2007
Posts: 112643
Lоcаtion: Киев (Kyiv, UA)
Age: 45
Name: Andrey
Maxx Warrior - 1986 - Maxx Warrior

Image

Крепкий и задорный германский американский хэви :true:
Но как обычно - хорошо, но мало. Всего 4 песенки. Больше группа ничего не успела издать :dash:

Ориентир для тех, кто ищет аналогии с другими группами - Motley Crue.


Добавлено: Пн Июл 23, 2007 15:33

_________________


Last edited by Scatterbrain on 08 May 2014, edited 2 times in total.
Страны спутал


Top
 Profile E-mail  
 
 
PostPosted: 20 Jul 2009 
хард н хэвщик (support team)
User avatar
Joined: 02 Jun 2008
Posts: 16881
Lоcаtion: Н.Новгород
Age: 32
Name: Артем
Иссякла мысль поэта :yo:


Top
 Profile  
 
 
PostPosted: 20 Jul 2009 
Хиппей (support team)
User avatar
Joined: 30 Jul 2007
Posts: 112643
Lоcаtion: Киев (Kyiv, UA)
Age: 45
Name: Andrey
Сейчас чего-то вообще нет вдохновения описывать альбомы подробнее :vic: :fingal:

_________________


Top
 Profile E-mail  
 
 
PostPosted: 21 Jul 2009 
Почётный металлург
User avatar
Joined: 15 Sep 2007
Posts: 4358
Lоcаtion: Хабаровск
Age: 59
Name: чуть выше
Scatterbrain wrote:
Сейчас чего-то вообще нет вдохновения описывать альбомы подробнее

А дальше будет больше?

_________________
Коль будешь людей ты ослами честить,
тебе человеком меж них не прослыть!
(Саади, персидский поэт, 13в.)


Top
 Profile  
 
 
PostPosted: 21 Jul 2009 
Хиппей (support team)
User avatar
Joined: 30 Jul 2007
Posts: 112643
Lоcаtion: Киев (Kyiv, UA)
Age: 45
Name: Andrey
Sergey wrote:
А дальше будет больше?

Не, явно еще скромнее :pardon:

_________________


Top
 Profile E-mail  
 
 
PostPosted: 05 May 2014 
Хиппей (support team)
User avatar
Joined: 30 Jul 2007
Posts: 112643
Lоcаtion: Киев (Kyiv, UA)
Age: 45
Name: Andrey
Scatterbrain wrote:
Ориентир для тех, кто ищет аналогии с другими группами - Motley Crue.

И всё же это скорее мелодик хэви... :oops:

Топик переносится в "Бухту" с винил-рипами, так как нашелся чисто случайно миник в лосике :pardon:

Maxx Warrior - 1985 - Maxx Warrior (EP) [flacs] - vinyl

Image Image Image Image

mirror: Narod l M-Cloud

Занятно, что после распада группа собиралась еще два раза и дала за те 20 лет аж два концерта :dance:


cue
REM GENRE "Heavy Metal"
REM DATE 1985
REM COMMENT "CUETools 2.0.4a"
PERFORMER "Maxx Warrior"
TITLE "Maxx Warrior"
FILE "1 High On Metal.wav" WAVE
TRACK 01 AUDIO
TITLE "High On Metal"
PERFORMER "Maxx Warrior"
INDEX 01 00:00:00
FILE "2 It's Alright.wav" WAVE
TRACK 02 AUDIO
TITLE "It's Alright"
PERFORMER "Maxx Warrior"
INDEX 01 00:00:00
FILE "3 Taken By Forces.wav" WAVE
TRACK 03 AUDIO
TITLE "Taken By Forces"
PERFORMER "Maxx Warrior"
INDEX 01 00:00:00
FILE "4 Burning Down The Gates Of Hell.wav" WAVE
TRACK 04 AUDIO
TITLE "Burning Down The Gates Of Hell"
PERFORMER "Maxx Warrior"
INDEX 01 00:00:00

_________________


Top
 Profile E-mail  
 
 
PostPosted: 08 May 2014 
Дежурный по КУПу
User avatar
Joined: 17 Aug 2007
Posts: 5871
Age: 50
Name: Ге
:thanx:

_________________
http://jp-mania.ru/
http://jp-tourdates.ucoz.ru/


Top
 Profile  
 
 
PostPosted: 08 May 2014 
Персональный статус
Joined: 05 Feb 2011
Posts: 348
Lоcаtion: Russia, Novosibirsk
Age: 44
Name: Андрей
:oops: Исправить-бы на USA...
Firehouse ансамбль знакОм ? ;)


Top
 Profile E-mail  
 
 
PostPosted: 08 May 2014 
Хиппей (support team)
User avatar
Joined: 30 Jul 2007
Posts: 112643
Lоcаtion: Киев (Kyiv, UA)
Age: 45
Name: Andrey
andytih wrote:
Исправить-бы на USA...

Хых, спасибо за подмеченный косяк :thanx:

Исправлено :dance: Была указана... Германия :pardon:

_________________


Top
 Profile E-mail  
 
 
PostPosted: 24 May 2014 
Доктор энтомологии
User avatar
Joined: 22 Jan 2009
Posts: 9736
Lоcаtion: Даугавпилс
Age: 44
Name: Алексей
:thanx:


Top
 Profile  
 
Display posts from previous:  Sort by  
Post new topic Reply to topic  [ 10 posts ] 

All times are UTC + 3 hours


Who is online

Users browsing this forum: No registered users and 1 guest


You cannot post new topics in this forum
You cannot reply to topics in this forum
You cannot edit your posts in this forum
You cannot delete your posts in this forum
You cannot post attachments in this forum

Search for:
Яндекс.Метрика
Powered by phpBB © 2000, 2002, 2005, 2007 phpBB Group