\m/ 80's metal \m/

Информационно-аналитический форум "80 см пыли" (In Search We Trust) "У нас никто никуда не спешит"
Me For You - http://me-4u.com
It is currently 25 May 2019

All times are UTC + 3 hours

Spoiler
Chat - temporary registration for foreign users (please leave your application here)







Post new topic Reply to topic  [ 35 posts ]  Go to page 1, 2  Next
Author Message
 
PostPosted: 16 Jan 2009 
Персональный статус
Joined: 06 Oct 2007
Posts: 339
TRANCE

1982 - Break Out + 1983 - Power Infusion

Image

Year - 1982 + 1983
Country - Germany
Genre - Heavy Metal
Format - PCM (1411 kbit)
Size - 98 Mb/98 Mb/98 Mb/98 Mb/98 Mb/85,5 Mb

1. Break Out
2. Confession
3. Get It Now
4. Burn The Ice
5. For Your Love
6. Loser
7. Ain't No Love
8. Higher
9. Baby Child
10. Heavy Metal Queen
11. Rockstar
12. Children Of Illusion
13. Glasshouse
14. SLD (Dedicated To MCE)
15. Shokpower
16. Burn Your Lies
17. Sensation
18. Storm And Thunder

Part 1
Part 2
Part 3
Part 4
Part 5
Part 6


Top
 Profile  
 
 
PostPosted: 16 Jan 2009 
Почётный металлург
User avatar
Joined: 15 Sep 2007
Posts: 4358
Lоcаtion: Хабаровск
Age: 59
Name: чуть выше
Благодарствую! :true: :true: :true:

_________________
Коль будешь людей ты ослами честить,
тебе человеком меж них не прослыть!
(Саади, персидский поэт, 13в.)


Top
 Profile  
 
 
PostPosted: 16 Jan 2009 
Хиппей (support team)
User avatar
Joined: 30 Jul 2007
Posts: 112790
Lоcаtion: Киев (Kyiv, UA)
Age: 45
Name: Andrey
Ой как много :shok:
Спасибо :true:


Top
 Profile E-mail  
 
 
PostPosted: 16 Jan 2009 
А может смените мне статус?..
User avatar
Joined: 24 Dec 2008
Posts: 640
Age: 45
Name: Дмитрий
Спасибо!


Top
 Profile  
 
 
PostPosted: 16 Jan 2009 
Хиппей (support team)
User avatar
Joined: 30 Jul 2007
Posts: 112790
Lоcаtion: Киев (Kyiv, UA)
Age: 45
Name: Andrey
Кстати, а чем пиратка отличается от оригинальных изданий? Кроме как два в одном альбома. Или мож песенок каких нетути? :oops:


Top
 Profile E-mail  
 
 
PostPosted: 17 Jan 2009 
.
User avatar
Joined: 25 Aug 2007
Posts: 568
Lоcаtion: Москва
Age: 107
Name: Kostolom
Слегка урезанным оформлением, это факт.

Плюс хрен знает, с каких источников её делали и вообще как аудио-дорожки из оригинальных дисков сохраняли..


Top
 Profile  
 
 
PostPosted: 14 Sep 2011 
Доктор энтомологии
User avatar
Joined: 22 Jan 2009
Posts: 9752
Lоcаtion: Даугавпилс
Age: 44
Name: Алексей
Прелесть какая :meloman: Спасибо большое за знакомство с бандой :thanx: :true:


Top
 Profile  
 
 
PostPosted: 13 May 2015 
парень в очёчкXаX!
User avatar
Joined: 15 Aug 2007
Posts: 2353
Lоcаtion: UK'раина, г. ЛондАн Би-Би-Си
Age: 48
Name: Сергей
может кто сохранял для архива?
неплохо бы дать новую жизнь

:fingal:


Top
 Profile  
 
 
PostPosted: 13 May 2015 
Рарник и трушник
User avatar
Joined: 25 Dec 2009
Posts: 8615
Lоcаtion: Москва
Age: 53
Name: Виталий
Я точно не сохранял, поскоку и фирма была и цы-ды-ры, и пиратка по-отдельности и винилки. ;)


Top
 Profile  
 
 
PostPosted: 07 Jan 2016 
Зарегился вот...
User avatar
Joined: 28 Mar 2013
Posts: 8
Name: .
Reupload all sites are down here since 2013.


Top
 Profile E-mail  
 
 
PostPosted: 09 Jan 2016 
Труъ
User avatar
Joined: 28 Mar 2013
Posts: 180
Lоcаtion: Parana-Brazil
Age: 54
Name: Pedro Gabriel Lanza
I also search by this original file in lossless vinyl rip 1411 kbits. Some chance reupload?


Top
 Profile E-mail  
 
 
PostPosted: 06 Feb 2016 
Хиппей (support team)
User avatar
Joined: 30 Jul 2007
Posts: 112790
Lоcаtion: Киев (Kyiv, UA)
Age: 45
Name: Andrey
Люди, человеки, граждане, перезалейте файл, пожалуйста, если кто качал.

_________________


Top
 Profile E-mail  
 
 
PostPosted: 06 Feb 2016 
Хиппей (support team)
User avatar
Joined: 30 Jul 2007
Posts: 112790
Lоcаtion: Киев (Kyiv, UA)
Age: 45
Name: Andrey
I also search by this original file in lossless vinyl rip 1411 kbits. Some chance reupload?

But this is a pirate edition (bootleg 2 in 1), сomrade :lloo:

_________________


Top
 Profile E-mail  
 
 
PostPosted: 06 Feb 2016 
Хиппей (support team)
User avatar
Joined: 30 Jul 2007
Posts: 112790
Lоcаtion: Киев (Kyiv, UA)
Age: 45
Name: Andrey
Этот нужен? http://rutracker.org/forum/viewtopic.php?t=4740348 :vic:

_________________


Top
 Profile E-mail  
 
 
PostPosted: 06 Feb 2016 
Хиппей (support team)
User avatar
Joined: 30 Jul 2007
Posts: 112790
Lоcаtion: Киев (Kyiv, UA)
Age: 45
Name: Andrey
Trance - 1983 - Power Infusion [LP 24-96 by deathrower] - vinyl

Image

mirror: Narod l M-Cloud

cue
REM DATE 1983
REM COMMENT Rockport - RO 023; Rip by deathrower for http://rutracker.org
PERFORMER "Trance"
TITLE "Break Out"
FILE "Trance - Power Infusion [Side A].flac" WAVE
TRACK 01 AUDIO
TITLE "Heavy Metal Queen"
INDEX 01 00:00:00
TRACK 02 AUDIO
TITLE "Rockstar"
INDEX 01 03:18:30
TRACK 03 AUDIO
TITLE "Children Of Illusion"
INDEX 01 07:02:67
TRACK 04 AUDIO
TITLE "Glasshouse"
INDEX 01 12:06:34
TRACK 05 AUDIO
TITLE "S L D"
INDEX 01 15:40:00
FILE "Trance - Power Infusion [Side B].flac" WAVE
TRACK 06 AUDIO
TITLE "Shock Power"
INDEX 01 00:00:00
TRACK 07 AUDIO
TITLE "Burn Your Lies"
INDEX 01 04:44:65
TRACK 08 AUDIO
TITLE "Sensation"
INDEX 01 10:31:30
TRACK 09 AUDIO
TITLE "Storm & Thunder"
INDEX 01 14:29:50


pt1 - http://rusfolder.com/44721363
pt2 - http://rusfolder.com/44721366
pt3 - http://rusfolder.com/44721374

_________________


Top
 Profile E-mail  
 
 
PostPosted: 06 Feb 2016 
Хиппей (support team)
User avatar
Joined: 30 Jul 2007
Posts: 112790
Lоcаtion: Киев (Kyiv, UA)
Age: 45
Name: Andrey
Scatterbrain wrote:
Trance - 1983 - Power Infusion

Не, ну снова я какой-то неправильный, явно. Альбом не понравился. Даже немного раздражает.
Не люблю я... занудные клоны группы Nazareth :crazy: :esel: :esel: :esel:

3/10

Мож дальше будет лучше всё у них? Хвалит ведь народ, а?.. :scratch:

_________________


Top
 Profile E-mail  
 
 
PostPosted: 06 Feb 2016 
Я набрал 1000 сообщений!
Joined: 21 Nov 2009
Posts: 1414
Lоcаtion: praga
Age: 48
Name: Сергей
Дальше будет лучше,дальше веселее. :benya:


Top
 Profile E-mail  
 
 
PostPosted: 06 Feb 2016 
Труъ
User avatar
Joined: 28 Mar 2013
Posts: 180
Lоcаtion: Parana-Brazil
Age: 54
Name: Pedro Gabriel Lanza
I also search by this original file in lossless vinyl rip 1411 kbits. Some chance reupload?

But this is a pirate edition (bootleg 2 in 1), сomrade :lloo:


I thought was a exclusive rip of Shadragon member. I am trying to download by Rutracker since last year, but here 1 torrent is down (0 seed, 0 leecher). I was a donkey, if I have noticed this album was shared in Rutracker, I would have founded for time. Bad luck, I only am finding broken torrents in web. All torrents that I found or are from 2011, 2012 or 2013, all are broken, rarely some is working yet with some seed.


Top
 Profile E-mail  
 
 
PostPosted: 07 Feb 2016 
Труъ
User avatar
Joined: 28 Mar 2013
Posts: 180
Lоcаtion: Parana-Brazil
Age: 54
Name: Pedro Gabriel Lanza
I found here the other album a person sent it for me, there's only a seed in the moment http://rutracker.org/forum/viewtopic.php?t=4740093


Top
 Profile E-mail  
 
 
PostPosted: 07 Feb 2016 
Хиппей (support team)
User avatar
Joined: 30 Jul 2007
Posts: 112790
Lоcаtion: Киев (Kyiv, UA)
Age: 45
Name: Andrey
Pelu,так какой альбом тебе нужен - "Break Out"? :vic:

_________________


Top
 Profile E-mail  
 
Display posts from previous:  Sort by  
Post new topic Reply to topic  [ 35 posts ]  Go to page 1, 2  Next

All times are UTC + 3 hours


Who is online

Users browsing this forum: No registered users and 2 guests


You cannot post new topics in this forum
You cannot reply to topics in this forum
You cannot edit your posts in this forum
You cannot delete your posts in this forum
You cannot post attachments in this forum

Search for:
Яндекс.Метрика
Powered by phpBB © 2000, 2002, 2005, 2007 phpBB Group