\m/ 80's metal \m/

Информационно-аналитический форум "80 см пыли" (In Search We Trust) "У нас никто никуда не спешит"
Me For You - http://me-4u.com
It is currently 20 Jul 2019

All times are UTC + 3 hours

Spoiler
Chat - temporary registration for foreign users (please leave your application here)







Post new topic Reply to topic  [ 458 posts ]  Go to page Previous  1 ... 14, 15, 16, 17, 18, 19, 20 ... 23  Next
Author Message
 
PostPosted: 23 Apr 2015 
Рарник и трушник
User avatar
Joined: 25 Dec 2009
Posts: 8665
Lоcаtion: Москва
Age: 53
Name: Виталий
Image

КРУИЗ
Круиз - 1

1. Интро (Intro)
2. Дальний свет (Distant Light)
3. Случилось... (It Happened So)
4. Последний рассвет (Last Dawn)
5. Иди же с нами... (So Come with Us...)
6. Мираж (Mirage)
7. Время (Time)

Бонусы:
8. Рок Навсегда (Rock Is Eternal (Forever Rock) (полная версия LP "Место встречи - дискотека 4")
9. Мираж (Mirage) (live) (LP Рок-панорама 1986)
10. Не Падай Духом (Don't Lose Your Head) (live) (LP Рок-панорама 1986)
11. Рок навсегда (Forever Rock - Live 1988 in Ost-Berlin)
12. Бас соло Васильева (Vasiliev's bass solo)
13. Рок навсегда (Forever Rock) (версия с альтернативным вступлением)

Исползуемое оборудование для оцифровки:
Проигрыватель - Yamaha GT-750;
Головка звукоснимателя - AT-440MLa (игла - nude stylus "shibata");
Фонокорректор - ProJect Tube Box II (лампы Telefunken 60-х NOS);
АЦП - RME Babyface (режим ASIO);
Программа - оцифровщик: Steinberg WaveLab 6.

Давно хотел переделать. Получилось шикарно (я так думаю). Собрал аж 3 версии трека "Рок навсегда".
Понятно, что Круиз цифровали все, кому не лень, на тракторе штук 5-6 рипов, но свой ближе, со своей фирменной зачисткой. :benya:
На болванке звучит просто шикарно. Свой старый рип выкинул, и все другие тоже. :benya:
http://rusfolder.com/43516761


Top
 Profile  
 
 
PostPosted: 15 Jun 2015 
консэрваторъ
User avatar
Joined: 11 Aug 2007
Posts: 17051
Lоcаtion: Псков
Age: 45
Name: Сергей
Scatterbrain wrote:
Начинай с первого

По громкости звука рассуждения утопичны, т.к. восприятие громкости субъективно... Мы никогда не окажемся в одинаковых начальных условиях, посему и слышать всегда и всё будем по разному... Только если не соберёмся все у тебя вокруг той самой судьбоносной колонки... Она же чёрного цвета, правильно?.. Как трон в лесу?.. :smile:
Scatterbrain wrote:
сравни эти два с интро ещё

всё одинаково херово звучит через бук...
Scatterbrain wrote:
всё время и всю музыку я слушаю одинаково

Это тебе так только кажется... Обман везде обман...
Scatterbrain wrote:
На моих фотках видно, откуда звук входит и куда входит

Петля?.. И где фотки то?..

_________________
THRASH 'EM ALL


Top
 Profile E-mail  
 
 
PostPosted: 15 Jun 2015 
Хиппей (support team)
User avatar
Joined: 30 Jul 2007
Posts: 113555
Lоcаtion: Киев (Kyiv, UA)
Age: 46
Name: Andrey
splatty wrote:
всё одинаково херово звучит через бук...

Одна из них точно тише двух других звучит.
splatty wrote:
Петля?.. И где фотки то?..

Да из правого канала звук выходит на колонку, проходя через комп.
Что такое петля, я не знаю :vic:

_________________


Top
 Profile E-mail  
 
 
PostPosted: 15 Jun 2015 
Хиппей (support team)
User avatar
Joined: 30 Jul 2007
Posts: 113555
Lоcаtion: Киев (Kyiv, UA)
Age: 46
Name: Andrey
splatty wrote:
И где фотки то?..

:arrow: viewtopic.php?p=237543#p237543

_________________


Top
 Profile E-mail  
 
 
PostPosted: 15 Jun 2015 
\m/ 80 см сала \m/
User avatar
Joined: 12 Mar 2012
Posts: 2590
Age: 26
Name: Nick
Набор юного испытателя звуковых волн, пиков и прочей физматовской ереси:
Quote:
foobar2000 1.3.5 / Dynamic Range Meter 1.1.1
log date: 2015-06-15 19:55:04

--------------------------------------------------------------------------------
Analyzed: ? / ?
--------------------------------------------------------------------------------

DR Peak RMS Duration Track
--------------------------------------------------------------------------------
DR11 -0.22 dB -13.01 dB 4:45 ?-01_Круиз-1_Интро
DR12 -0.32 dB -13.55 dB 4:25 ?-02_Круиз-1_Дальний свет
DR12 0.00 dB -13.53 dB 4:50 ?-03_Круиз-1_Случилось
DR11 -0.55 dB -13.04 dB 5:43 ?-04_Круиз-1_Последний рассвет
DR12 0.00 dB -14.01 dB 10:08 ?-05_Круиз-1_Иди же с нами
DR12 -0.36 dB -14.05 dB 3:34 ?-06_Круиз-1_Мираж
DR11 -0.61 dB -14.02 dB 4:38 ?-07_Круиз-1_Время
--------------------------------------------------------------------------------

Number of tracks: 7
Official DR value: DR11

Samplerate: 44100 Hz
Channels: 2
Bits per sample: 16
Bitrate: 1016 kbps
Codec: FLAC
================================================================================

waveform statistics:
Image Image
&
Image Image

_________________
1990 AUROPHON BRAINSTORM (Germany) - lossless
1994 MAUSOLEUM CLASSIX (Belgium-Germany) - lossless
1998 VA - GRIM HARVEST - Complete Metal Massacre Volumes I-XII


Top
 Profile  
 
 
PostPosted: 15 Jun 2015 
Хиппей (support team)
User avatar
Joined: 30 Jul 2007
Posts: 113555
Lоcаtion: Киев (Kyiv, UA)
Age: 46
Name: Andrey
Quote:
> 15.06.2015 20:36:12, Храни КОСМОНАВТОВ
> нашел фотку твоей колонки. почему-то всегда думал, что это будет маяковская колонка, и какой-то один канал
> 15.06.2015 20:41:14, Храни КОСМОНАВТОВ
> все равно не понял. напиши мне так, шоб было понятно. только мне:-X
> 15.06.2015 20:41:59, Scatterbrain©
> бери песню "иди же с нами" с сдимаксимума
> слушай её. там секунд 60, затем сразу тыкай в песню "мираж"
> 15.06.2015 20:42:02, Scatterbrain©
> всё
> 15.06.2015 20:42:13, Scatterbrain©
> вот там и сравни сразу. какая громче звучит?
> 15.06.2015 20:43:02, Scatterbrain©
> http://cd-maximum.ru/index.php?hid=44701&lang=ru
> 15.06.2015 20:44:15, Храни КОСМОНАВТОВ
> первый сэмпл тише
> 15.06.2015 20:45:17, Храни КОСМОНАВТОВ
> ща замерю и в виталином рипе
> 15.06.2015 20:45:24, Scatterbrain©
> теперь иди потыкай в них дулями
> 15.06.2015 20:49:35, Храни КОСМОНАВТОВ запросил
> 15.06.2015 20:49:43, Храни КОСМОНАВТОВ
> свет моргает
> 15.06.2015 20:53:09, Scatterbrain©
> ща будут перепады звука
> 15.06.2015 20:53:17, Храни КОСМОНАВТОВ
> :benya:
> 15.06.2015 20:53:22, Храни КОСМОНАВТОВ
> гром, молния, все дела
=== здесь смотри на скрины выше, у Ник в сообщении ====

> 15.06.2015 21:04:23, Храни КОСМОНАВТОВ
>> считалка считает трек вообще, а не фрагментарно
> тем самым, начало сильно тихо и середина сильно
> громкая дают на суммарно неверный результат по
> песне?
> 15.06.2015 21:04:25, Scatterbrain©
слушай тогда их, плиз, ухаме
> 15.06.2015 21:06:39, Храни КОСМОНАВТОВ
> http://s3.postimg.org/io8p9zyo3/image.png
> http://s3.postimg.org/q5hwp7o77/image.png
> 15.06.2015 21:06:43, Храни КОСМОНАВТОВ
> специально для тебя
> 15.06.2015 21:07:12, Храни КОСМОНАВТОВ
> второй трек просчитан полностью, первый - только
> стабильный участок после синтезатора
> 15.06.2015 21:08:12, Храни КОСМОНАВТОВ
> Max RMS - замер только по пиках, Total RMS -
> соответственно, средний уровень в целом
> 15.06.2015 21:08:56, Храни КОСМОНАВТОВ
> первый трек, без учета синтезаторов, громче
> 15.06.2015 21:09:00, Храни КОСМОНАВТОВ
> второй - тише
> 15.06.2015 21:12:01, Scatterbrain©
> всё. спасибо
> еще раз, пол, повтори название песен?

> 15.06.2015 21:12:42, Храни КОСМОНАВТОВ
> написано же
> 15.06.2015 21:12:44, Храни КОСМОНАВТОВ
> иди же с нами
> 15.06.2015 21:12:46, Храни КОСМОНАВТОВ
> мираж
> 15.06.2015 21:13:20, Scatterbrain©
> всё. пасибо, я лук ем, сало картошку. слёзы текут, не всё вижу ща
> 15.06.2015 21:13:30, Scatterbrain©
> зато ухи прочистил ещё больше

_________________


Top
 Profile E-mail  
 
 
PostPosted: 15 Jun 2015 
Хиппей (support team)
User avatar
Joined: 30 Jul 2007
Posts: 113555
Lоcаtion: Киев (Kyiv, UA)
Age: 46
Name: Andrey
Чуть выше Толя услышал несколько небольших щелчков на рипе, который делал Виталий.

В общем, уже скоро я буду слушать всё это дело в наушниках. Никто ни о чём не хотит заранее предупредить, не? :crazy:

_________________


Top
 Profile E-mail  
 
 
PostPosted: 15 Jun 2015 
консэрваторъ
User avatar
Joined: 11 Aug 2007
Posts: 17051
Lоcаtion: Псков
Age: 45
Name: Сергей
Scatterbrain wrote:
из правого канала звук выходит на колонку, проходя через комп

Ничего не понимаю, можно блок схему нарисовать, откуда входит и куда входит, если никуда не выходит?..
splatty wrote:
И где фотки то?..

:arrow: viewtopic.php?p=237543#p237543

Ничего не понимаю... куда ведёт этот кабель и что за стерео 2?.. Джойнт стерео что ли?.. А куда колонка подключена?.. :vic:

Image

_________________
THRASH 'EM ALL


Top
 Profile E-mail  
 
 
PostPosted: 15 Jun 2015 
консэрваторъ
User avatar
Joined: 11 Aug 2007
Posts: 17051
Lоcаtion: Псков
Age: 45
Name: Сергей
Scatterbrain wrote:
На моих фотках видно, откуда звук входит и куда входит, а на твоих какие-то фигнюшки нарисованы

На моих вообще никаких фигнюшек нет... всё вынесли!..



Image


Вообще никакого рокота, никаких перепадов, всё звучит абсолютно одинаково!..

_________________
THRASH 'EM ALL


Top
 Profile E-mail  
 
 
PostPosted: 15 Jun 2015 
HAMMER
User avatar
Joined: 16 May 2009
Posts: 5488
Lоcаtion: Тверь
Age: 46
Name: Александр

1 -

2 -


Вот в таком порядке какой трэк звучит громче?


Тоже решил прослушать эти два пэсня, раз уж такое обсуждение "года" пошло. Громкость песен одинаковая, правда во второй теме барабаны звучат громче, прям перегруз отчетливо видно, бумбокс однако. :oops:

Мною песнь прослушана честно, на компутере и в наушниках Razer Kraken Pro цвета детской неожиданности. :thanx:

http://www.razerzone.ru/product/gameaudio/kraken-pro


Image


Top
 Profile E-mail  
 
 
PostPosted: 15 Jun 2015 
Хиппей (support team)
User avatar
Joined: 30 Jul 2007
Posts: 113555
Lоcаtion: Киев (Kyiv, UA)
Age: 46
Name: Andrey
splatty wrote:
Вообще никакого рокота, никаких перепадов, всё звучит абсолютно одинаково!..

А шо, ковров тоже нету? :shok: :shok: :shok:

_________________


Top
 Profile E-mail  
 
 
PostPosted: 15 Jun 2015 
Хиппей (support team)
User avatar
Joined: 30 Jul 2007
Posts: 113555
Lоcаtion: Киев (Kyiv, UA)
Age: 46
Name: Andrey
Molot wrote:
правда во второй теме барабаны звучат громче, прям перегруз отчетливо видно, бумбокс однако.

:thanx: :dance:


Сань, а шо-то из аудиофильской аппаратуры у тебя есть?

_________________


Top
 Profile E-mail  
 
 
PostPosted: 15 Jun 2015 
Анатолий
User avatar
Joined: 18 Oct 2008
Posts: 3506
Lоcаtion: Армавир
Age: 42
Name: Анатолий
Molot wrote:
во второй теме барабаны звучат громче


Барабановое железо там на себя одеяло тянет... скорее всего именно из-за этого кое-кому что-то там кажется. :crazy:


Top
 Profile E-mail  
 
 
PostPosted: 15 Jun 2015 
Хиппей (support team)
User avatar
Joined: 30 Jul 2007
Posts: 113555
Lоcаtion: Киев (Kyiv, UA)
Age: 46
Name: Andrey
Шо, зачухались? :cow:
Когда уже все во всём сознались :pardon:

А раньше чего не слышали косяков?

_________________


Top
 Profile E-mail  
 
 
PostPosted: 15 Jun 2015 
Анатолий
User avatar
Joined: 18 Oct 2008
Posts: 3506
Lоcаtion: Армавир
Age: 42
Name: Анатолий
Как говорится: кто о чём, а нищий о рубашке. :crazy:


Top
 Profile E-mail  
 
 
PostPosted: 16 Jun 2015 
HAMMER
User avatar
Joined: 16 May 2009
Posts: 5488
Lоcаtion: Тверь
Age: 46
Name: Александр
Molot wrote:
правда во второй теме барабаны звучат громче, прям перегруз отчетливо видно, бумбокс однако.

:thanx: :dance:


Сань, а шо-то из аудиофильской аппаратуры у тебя есть?


Немае, только жена. :pardon:


Top
 Profile E-mail  
 
 
PostPosted: 16 Jun 2015 
консэрваторъ
User avatar
Joined: 11 Aug 2007
Posts: 17051
Lоcаtion: Псков
Age: 45
Name: Сергей
Scatterbrain wrote:
ковров тоже нету?

Нету ковров... трёх...
Scatterbrain wrote:
А раньше чего не слышали косяков?

Их невозможно услышать, ибо их нет... Хоте не всё чего невидно нет...


_________________
THRASH 'EM ALL


Top
 Profile E-mail  
 
 
PostPosted: 16 Jun 2015 
консэрваторъ
User avatar
Joined: 11 Aug 2007
Posts: 17051
Lоcаtion: Псков
Age: 45
Name: Сергей
Андрюх, какой трек звучит громче?.. ;)


_________________
THRASH 'EM ALL


Top
 Profile E-mail  
 
 
PostPosted: 16 Jun 2015 
Рарник и трушник
User avatar
Joined: 25 Dec 2009
Posts: 8665
Lоcаtion: Москва
Age: 53
Name: Виталий
Scatterbrain wrote:
> 15.06.2015 21:04:23, Храни КОСМОНАВТОВ
>> считалка считает трек вообще, а не фрагментарно
> тем самым, начало сильно тихо и середина сильно
> громкая дают на суммарно неверный результат по
> песне?

Ну оочень спорное утверждение!!! :vic:
Scatterbrain wrote:
> первый трек, без учета синтезаторов, громче
> 15.06.2015 21:09:00, Храни КОСМОНАВТОВ
> второй - тише

Scatterbrain wrote:
> 15.06.2015 21:12:44, Храни КОСМОНАВТОВ
> иди же с нами -15,92 дБ
> 15.06.2015 21:12:46, Храни КОСМОНАВТОВ
> мираж - 17,01 дБ

Everhard wrote:
DR12 0.00 dB -14.01 dB 10:08 ?-05_Круиз-1_Иди же с нами
DR12 -0.36 dB -14.05 dB 3:34 ?-06_Круиз-1_Мираж
DR11 -0.61 dB -14.02 dB 4:38 ?-07_Круиз-1_Время


Жирным выделены данные нормализации от Храни КОСМОНАВТОВ и от Ника.
Ну и чо, Андрей, кому верить??? :vic:
Лично я верю Нику, поскольку приблизительно так и нормализовал, на уровне -14 дБ.
А ты уже от счастья заплясал, да? Не тут то было! :benya:

А теперь переведём эту разницу между: 17.01 - 14.05 =2.96 дБ, почти 3 дб, что значит (корень квадратный из 2-х) 1,4 раза или 40%!!!!!!!!!!!!!!! :crazy:
Ты чего, серьёзно считаешь, что разница в громкости между треками - 40 % :blum: :benya:
Так что, при всём типа уважении к Храни КОСМОНАВТОВ, его метода не вызывает доверия, нельзя выдрать из трека фрагмент и нормализовать его. Кстати, а в треке Мираж тоже есть тихие места. Как с ними быть, и почему он считал весь трек, а не самый громкий фрагмент? ;) Наш Сусанин всех засусанил. ;) Это называется - подделать результат эксперимента. ;)

Вот у Ника всё нормально, чего и Вам желаю! :benya:


Top
 Profile  
 
 
PostPosted: 16 Jun 2015 
Хиппей (support team)
User avatar
Joined: 30 Jul 2007
Posts: 113555
Lоcаtion: Киев (Kyiv, UA)
Age: 46
Name: Andrey
Андрюх, какой трек звучит громче?.. ;)


Пока оба никак не звучат :( Косяк со ссылками :pardon:

_________________


Top
 Profile E-mail  
 
 
PostPosted: 16 Jun 2015 
Хиппей (support team)
User avatar
Joined: 30 Jul 2007
Posts: 113555
Lоcаtion: Киев (Kyiv, UA)
Age: 46
Name: Andrey
Vitaly65 wrote:
Жирным выделены данные нормализации от Храни КОСМОНАВТОВ и от Ника.
Ну и чо, Андрей, кому верить???

Vitaly65 wrote:
Вот у Ника всё нормально, чего и Вам желаю!

Браво, взаимно :thanx:
Это всё один человек :crazy: :dance:

_________________


Top
 Profile E-mail  
 
Display posts from previous:  Sort by  
Post new topic Reply to topic  [ 458 posts ]  Go to page Previous  1 ... 14, 15, 16, 17, 18, 19, 20 ... 23  Next

All times are UTC + 3 hours


Who is online

Users browsing this forum: No registered users and 2 guests


You cannot post new topics in this forum
You cannot reply to topics in this forum
You cannot edit your posts in this forum
You cannot delete your posts in this forum
You cannot post attachments in this forum

Search for:
Яндекс.Метрика
Powered by phpBB © 2000, 2002, 2005, 2007 phpBB Group