\m/ 80's metal \m/

Информационно-аналитический форум "80 см пыли" (In Search We Trust) "У нас никто никуда не спешит"
Me For You - http://me-4u.com
It is currently 27 May 2019

All times are UTC + 3 hours

Spoiler
Chat - temporary registration for foreign users (please leave your application here)







Post new topic Reply to topic  [ 25 posts ]  Go to page 1, 2  Next
Author Message
 
PostPosted: 20 Sep 2013 
Рарник и трушник
User avatar
Joined: 25 Dec 2009
Posts: 8619
Lоcаtion: Москва
Age: 53
Name: Виталий
Image
Ezy Meat
Rock Your Brains

Country of origin: United Kingdom
Location: Aghagallon, Northern Ireland
Genre: NWOBHM
Lyrical themes: Stories, Street Life

Type: Full-length
Release date: September 1986
Label: Electric Storm

1. Rock Your Brains 03:17
2. I Never Met a Woman Like You 05:07
3. Sodom and Gomorrah 05:12
4. So Tired 05:04
5. I Gotta Run 05:29
6. Massacre 05:21
7. Alien Tale 16:23
45:53

http://f-bit.ru/233409
Мой винильный рип с очистками. :benya:
Image
Image


Last edited by Vitaly65 on 23 Oct 2013, edited 2 times in total.

Top
 Profile  
 
 
PostPosted: 20 Sep 2013 
Персональный статус
User avatar
Joined: 06 Apr 2013
Posts: 466
Lоcаtion: Russia, Orel
Age: 29
Name: Сергей
:thanx:


Top
 Profile E-mail  
 
 
PostPosted: 21 Sep 2013 
\m/ 80 см сала \m/
User avatar
Joined: 12 Mar 2012
Posts: 2590
Age: 26
Name: Nick
:thanx:

_________________
1990 AUROPHON BRAINSTORM (Germany) - lossless
1994 MAUSOLEUM CLASSIX (Belgium-Germany) - lossless
1998 VA - GRIM HARVEST - Complete Metal Massacre Volumes I-XII


Top
 Profile  
 
 
PostPosted: 21 Sep 2013 
Хиппей (support team)
User avatar
Joined: 30 Jul 2007
Posts: 112855
Lоcаtion: Киев (Kyiv, UA)
Age: 45
Name: Andrey
:thanx:

mirror: Narod

_________________


Top
 Profile E-mail  
 
 
PostPosted: 21 Sep 2013 
Почётный металлург
User avatar
Joined: 15 Sep 2007
Posts: 4358
Lоcаtion: Хабаровск
Age: 59
Name: чуть выше
Спасибище!

_________________
Коль будешь людей ты ослами честить,
тебе человеком меж них не прослыть!
(Саади, персидский поэт, 13в.)


Top
 Profile  
 
 
PostPosted: 21 Sep 2013 
\m/ 80 см сала \m/
User avatar
Joined: 12 Mar 2012
Posts: 2590
Age: 26
Name: Nick
Зеркало бы на Яндексе, ничерта не могу скачать из этого фбита :esel:
Пасибке Андрюха :meloman:

_________________
1990 AUROPHON BRAINSTORM (Germany) - lossless
1994 MAUSOLEUM CLASSIX (Belgium-Germany) - lossless
1998 VA - GRIM HARVEST - Complete Metal Massacre Volumes I-XII


Top
 Profile  
 
 
PostPosted: 21 Sep 2013 
Хиппей (support team)
User avatar
Joined: 30 Jul 2007
Posts: 112855
Lоcаtion: Киев (Kyiv, UA)
Age: 45
Name: Andrey
А выше шо? :shok:

_________________


Top
 Profile E-mail  
 
 
PostPosted: 21 Sep 2013 
\m/ 80 см сала \m/
User avatar
Joined: 12 Mar 2012
Posts: 2590
Age: 26
Name: Nick
А выше был разрыв пространственно-временного континиума.
В общем, я затупил :benya:

_________________
1990 AUROPHON BRAINSTORM (Germany) - lossless
1994 MAUSOLEUM CLASSIX (Belgium-Germany) - lossless
1998 VA - GRIM HARVEST - Complete Metal Massacre Volumes I-XII


Top
 Profile  
 
 
PostPosted: 21 Sep 2013 
Хиппей (support team)
User avatar
Joined: 30 Jul 2007
Posts: 112855
Lоcаtion: Киев (Kyiv, UA)
Age: 45
Name: Andrey
Да норм, я сам чуть второй раз не скачал по второй ссылке :crazy:

зы. Пора возвращать очкастую морожежуйку на место авика :fingal:

_________________


Top
 Profile E-mail  
 
 
PostPosted: 21 Sep 2013 
Old Time Rock`n`Roll
User avatar
Joined: 23 Jun 2008
Posts: 3429
Lоcаtion: г.Ульяновск
Age: 40
Name: Константин
Image


Top
 Profile  
 
 
PostPosted: 21 Sep 2013 
Персональный статус
User avatar
Joined: 04 Mar 2012
Posts: 239
Lоcаtion: Саратов
Name: Василий
:thanx: :thanx:


Top
 Profile E-mail  
 
 
PostPosted: 21 Sep 2013 
Персональный статус
User avatar
Joined: 06 Apr 2013
Posts: 466
Lоcаtion: Russia, Orel
Age: 29
Name: Сергей
спасибо Виталий и Андрей :thanx: :meloman:


Top
 Profile E-mail  
 
 
PostPosted: 21 Sep 2013 
Труъ
User avatar
Joined: 27 Feb 2009
Posts: 186
Lоcаtion: Питер
Age: 52
Name: Олег
:thanx: :thanx: :thanx:


Top
 Profile  
 
 
PostPosted: 21 Sep 2013 
Доктор энтомологии
User avatar
Joined: 22 Jan 2009
Posts: 9753
Lоcаtion: Даугавпилс
Age: 44
Name: Алексей
Спасиб Виталий, замечательный у тебя вкус :true: :thanx: Ты просто оживил своими влияниями форум, который было время погряз в аор-глэмовом говне


Top
 Profile  
 
 
PostPosted: 21 Sep 2013 
Рарник и трушник
User avatar
Joined: 25 Dec 2009
Posts: 8619
Lоcаtion: Москва
Age: 53
Name: Виталий
Entomologist wrote:
Спасиб Виталий, замечательный у тебя вкус :true: :thanx: Ты просто оживил своими влияниями форум, который было время погряз в аор-глэмовом говне

Спасибо, Алексей! :benya: А форум вытянем. :benya: :dash: :true:


Top
 Profile  
 
 
PostPosted: 21 Sep 2013 
Хиппей (support team)
User avatar
Joined: 30 Jul 2007
Posts: 112855
Lоcаtion: Киев (Kyiv, UA)
Age: 45
Name: Andrey
Нинада ничо никуда вытягивать :shok: :crazy:

_________________


Top
 Profile E-mail  
 
 
PostPosted: 22 Sep 2013 
\m/ 80 см сала \m/
User avatar
Joined: 12 Mar 2012
Posts: 2590
Age: 26
Name: Nick
.cue | +
Code:
REM DATE 1986
REM COMMENT "Electric Storm, ES 0002, Ireland"
PERFORMER "Ezy Meat (UK)"
TITLE "Rock Your Brains [Vinyl Rip 16/44.1]"
FILE "01_Ezy Meat_Rock Your Brains.flac" WAVE
  TRACK 01 AUDIO
    TITLE "Rock Your Brains"
    PERFORMER "Ezy Meat"
    INDEX 01 00:00:00
FILE "02_Ezy Meat_I Never Met a Woman Like You.flac" WAVE
  TRACK 02 AUDIO
    TITLE "I Never Met A Woman Like You"
    PERFORMER "Ezy Meat"
    INDEX 01 00:00:00
FILE "03_Ezy Meat_Sodom and Gomorrah.flac" WAVE
  TRACK 03 AUDIO
    TITLE "Sodom And Gomorrah"
    PERFORMER "Ezy Meat"
    INDEX 01 00:00:00
FILE "04_Ezy Meat_So Tired.flac" WAVE
  TRACK 04 AUDIO
    TITLE "Oh So Tired"
    PERFORMER "Ezy Meat"
    INDEX 01 00:00:00
FILE "05_Ezy Meat_I Gotta Run.flac" WAVE
  TRACK 05 AUDIO
    TITLE "I Gotta Run"
    PERFORMER "Ezy Meat"
    INDEX 01 00:00:00
FILE "06_Ezy Meat_Massacre.flac" WAVE
  TRACK 06 AUDIO
    TITLE "Massacre"
    PERFORMER "Ezy Meat"
    INDEX 01 00:00:00
FILE "07_Ezy Meat_Alien Tale.flac" WAVE
  TRACK 07 AUDIO
    TITLE "Alien Tale"
    PERFORMER "Ezy Meat"
    INDEX 01 00:00:00

_________________
1990 AUROPHON BRAINSTORM (Germany) - lossless
1994 MAUSOLEUM CLASSIX (Belgium-Germany) - lossless
1998 VA - GRIM HARVEST - Complete Metal Massacre Volumes I-XII


Top
 Profile  
 
 
PostPosted: 12 Oct 2013 
\m/ 80 см сала \m/
User avatar
Joined: 12 Mar 2012
Posts: 2590
Age: 26
Name: Nick
Виталь, а первого альбома "Not for Wimps" (1984) в виниловых лосях не найдется в закромах? :lloo:

_________________
1990 AUROPHON BRAINSTORM (Germany) - lossless
1994 MAUSOLEUM CLASSIX (Belgium-Germany) - lossless
1998 VA - GRIM HARVEST - Complete Metal Massacre Volumes I-XII


Top
 Profile  
 
 
PostPosted: 12 Oct 2013 
Я набрал 1000 сообщений!
Joined: 24 Oct 2009
Posts: 2213
Lоcаtion: Оренбург
Age: 55
Name: Юра
:thanx: :thanx:

_________________
:dash: I am happy!


Top
 Profile E-mail  
 
 
PostPosted: 13 Oct 2013 
Рарник и трушник
User avatar
Joined: 25 Dec 2009
Posts: 8619
Lоcаtion: Москва
Age: 53
Name: Виталий
Everhard wrote:
Виталь, а первого альбома "Not for Wimps" (1984) в виниловых лосях не найдется в закромах?

Нету, к сожалению. :pardon:


Top
 Profile  
 
Display posts from previous:  Sort by  
Post new topic Reply to topic  [ 25 posts ]  Go to page 1, 2  Next

All times are UTC + 3 hours


Who is online

Users browsing this forum: No registered users and 2 guests


You cannot post new topics in this forum
You cannot reply to topics in this forum
You cannot edit your posts in this forum
You cannot delete your posts in this forum
You cannot post attachments in this forum

Search for:
Яндекс.Метрика
Powered by phpBB © 2000, 2002, 2005, 2007 phpBB Group