\m/ 80's metal \m/

Информационно-аналитический форум "80 см пыли" (In Search We Trust) "У нас никто никуда не спешит"
Me For You - http://me-4u.com
It is currently 19 Jul 2019

All times are UTC + 3 hours

Spoiler
Chat - temporary registration for foreign users (please leave your application here)







Post new topic Reply to topic  [ 11 posts ] 
Author Message
 
PostPosted: 18 Jul 2013 
5-speed satisfactor
User avatar
Joined: 16 Feb 2009
Posts: 3738
Lоcаtion: New York, USA
Age: 41
Name: Leonid
Image Image

Группа: Incubus
Страна: Великобритания
Aльбом: To Тhe Devil А Daughter
Год: 1984
Стиль: New Wave Of British Heavy Metal

Состав:
Colin Evans - Bass
Steve Crawford - Drums, Vocals
Ken Crawford - Guitars
Dave Crawford - Guitars, Vocals

Ссылка: http://www.metal-archives.com/albums/In ... ghter/5268

Примечание: это не американская death metal команда, которая записала альбом Serpent Temptation, который я тоже оцифровал.

Tracks:

1. She Laid Him Down 04:15
2. Highway to Hell 03:56
3. Life Beyond the Grave 04:51
4. Tight Fisted 03:52
5. To the Devil a Daughter 03:33
6. Helen of Troy 03:42
7. Night of Vengeance 04:26
8. You've Taken my Love 03:55
9. Sophisticated Woman 03:51
10. Night Fever 04:09

Оцифровал в 2004ом году.

Вертак: Pro-Ject 1.2
Cartridge: REGA bias
АЦП: Terratec Aureon Universe 7.1 со встроенным phono pre-amp

Никакой обработки запись не подвергалась за исключением сведения громкости до тишины между треками и удалению нескольких щелчков. Громкость после оцифровки не регулировалась. Я ее отрегулировал во время записи.

Винил любезно предоставил King Fowley.

У вас 2 недели:

[0]Incubus (UK) - To The Devil A Daughter (1984)[/0]

_________________
Death rules! Metal to all who oppose!


Top
 Profile  
 
 
PostPosted: 18 Jul 2013 
Хиппей (support team)
User avatar
Joined: 30 Jul 2007
Posts: 113555
Lоcаtion: Киев (Kyiv, UA)
Age: 46
Name: Andrey
:thanx:

mirror: F-Bit l Narod

_________________


Top
 Profile E-mail  
 
 
PostPosted: 18 Jul 2013 
\m/ 80 см сала \m/
User avatar
Joined: 12 Mar 2012
Posts: 2590
Age: 26
Name: Nick
metaleonid, :thanx:

.cue | +
Code:
REM GENRE Metal
REM DATE 1984
PERFORMER "Incubus (UK)"
TITLE "To the Devil a Daughter (vinyl rip 16/44)"
FILE "01. She Laid Him Down.flac" WAVE
  TRACK 01 AUDIO
    TITLE "She Laid Him Down"
    PERFORMER "Incubus"
    INDEX 01 00:00:00
FILE "02. Highway To Hell.flac" WAVE
  TRACK 02 AUDIO
    TITLE "Highway to Hell"
    PERFORMER "Incubus"
    INDEX 01 00:00:00
FILE "03. Life Beyond The Grave.flac" WAVE
  TRACK 03 AUDIO
    TITLE "Life Beyond the Grave"
    PERFORMER "Incubus"
    INDEX 01 00:00:00
FILE "04. Tight Fisted.flac" WAVE
  TRACK 04 AUDIO
    TITLE "Tight Fisted"
    PERFORMER "Incubus"
    INDEX 01 00:00:00
FILE "05. To The Devil And A Daughter.flac" WAVE
  TRACK 05 AUDIO
    TITLE "To the Devil a Daughter"
    PERFORMER "Incubus"
    INDEX 01 00:00:00
FILE "06. Helen Of Troy.flac" WAVE
  TRACK 06 AUDIO
    TITLE "Helen of Troy"
    PERFORMER "Incubus"
    INDEX 01 00:00:00
FILE "07. Night Of Vengeance.flac" WAVE
  TRACK 07 AUDIO
    TITLE "Night of Vengeance"
    PERFORMER "Incubus"
    INDEX 01 00:00:00
FILE "08. You've Taken My Love.flac" WAVE
  TRACK 08 AUDIO
    TITLE "You've Taken my Love"
    PERFORMER "Incubus"
    INDEX 01 00:00:00
FILE "09. Sophisticated Woman.flac" WAVE
  TRACK 09 AUDIO
    TITLE "Sophisticated Woman"
    PERFORMER "Incubus"
    INDEX 01 00:00:00
FILE "10. Night Fever.flac" WAVE
  TRACK 10 AUDIO
    TITLE "Night Fever"
    PERFORMER "Incubus"
    INDEX 01 00:00:00

_________________
1990 AUROPHON BRAINSTORM (Germany) - lossless
1994 MAUSOLEUM CLASSIX (Belgium-Germany) - lossless
1998 VA - GRIM HARVEST - Complete Metal Massacre Volumes I-XII


Last edited by Everhard on 18 Jul 2013, edited 1 time in total.

Top
 Profile  
 
 
PostPosted: 18 Jul 2013 
5-speed satisfactor
User avatar
Joined: 16 Feb 2009
Posts: 3738
Lоcаtion: New York, USA
Age: 41
Name: Leonid
Track 05. To The Devil And A Daughter.flac должен называться 05. To The Devil A Daughter.flac. Очепятка.

_________________
Death rules! Metal to all who oppose!


Top
 Profile  
 
 
PostPosted: 18 Jul 2013 
\m/ 80 см сала \m/
User avatar
Joined: 12 Mar 2012
Posts: 2590
Age: 26
Name: Nick
Image

Стараюсь куи писать согласно сканам - если таковые имеются. Если нет - бегу на метал-архивы :pardon:

_________________
1990 AUROPHON BRAINSTORM (Germany) - lossless
1994 MAUSOLEUM CLASSIX (Belgium-Germany) - lossless
1998 VA - GRIM HARVEST - Complete Metal Massacre Volumes I-XII


Last edited by Scatterbrain on 16 Feb 2019, edited 2 times in total.
Подправлена ссылка на картинку


Top
 Profile  
 
 
PostPosted: 18 Jul 2013 
5-speed satisfactor
User avatar
Joined: 16 Feb 2009
Posts: 3738
Lоcаtion: New York, USA
Age: 41
Name: Leonid
Ну вот я и говорю, что файл 05. To The Devil And And A Daughter.flac надо переименовать в 05. To The Devil And A Daughter.flac, чтоб под твой куй подошло.

_________________
Death rules! Metal to all who oppose!


Top
 Profile  
 
 
PostPosted: 18 Jul 2013 
\m/ 80 см сала \m/
User avatar
Joined: 12 Mar 2012
Posts: 2590
Age: 26
Name: Nick
metaleonid, а ведь действительно :fingal:
Подправил, спасибо за замечание - теперь куй сходится с рипом Леонида и ничего переименовывать не нужно (если сами того не хотите, естественно).

_________________
1990 AUROPHON BRAINSTORM (Germany) - lossless
1994 MAUSOLEUM CLASSIX (Belgium-Germany) - lossless
1998 VA - GRIM HARVEST - Complete Metal Massacre Volumes I-XII


Top
 Profile  
 
 
PostPosted: 18 Jul 2013 
Хиппей (support team)
User avatar
Joined: 30 Jul 2007
Posts: 113555
Lоcаtion: Киев (Kyiv, UA)
Age: 46
Name: Andrey
А троеточие не нужно в имени песни? :oops:

_________________


Top
 Profile E-mail  
 
 
PostPosted: 20 Jul 2013 
\m/ 80 см сала \m/
User avatar
Joined: 12 Mar 2012
Posts: 2590
Age: 26
Name: Nick
Это даже какое-то "двоеточие" (што?), и в перечне композиций никаких точечек нет :blum:

_________________
1990 AUROPHON BRAINSTORM (Germany) - lossless
1994 MAUSOLEUM CLASSIX (Belgium-Germany) - lossless
1998 VA - GRIM HARVEST - Complete Metal Massacre Volumes I-XII


Top
 Profile  
 
 
PostPosted: 20 Jul 2013 
Хиппей (support team)
User avatar
Joined: 30 Jul 2007
Posts: 113555
Lоcаtion: Киев (Kyiv, UA)
Age: 46
Name: Andrey
Everhard wrote:
Это даже какое-то "двоеточие"

Да. Явно краски не хватило :vic:

_________________


Top
 Profile E-mail  
 
 
PostPosted: 07 Aug 2013 
Доктор энтомологии
User avatar
Joined: 22 Jan 2009
Posts: 9805
Lоcаtion: Даугавпилс
Age: 44
Name: Алексей
metaleonid
:thanx:


Top
 Profile  
 
Display posts from previous:  Sort by  
Post new topic Reply to topic  [ 11 posts ] 

All times are UTC + 3 hours


Who is online

Users browsing this forum: No registered users and 1 guest


You cannot post new topics in this forum
You cannot reply to topics in this forum
You cannot edit your posts in this forum
You cannot delete your posts in this forum
You cannot post attachments in this forum

Search for:
Яндекс.Метрика
cron
Powered by phpBB © 2000, 2002, 2005, 2007 phpBB Group