\m/ 80's metal \m/

Информационно-аналитический форум "80 см пыли" (In Search We Trust) "У нас никто никуда не спешит"
Me For You - http://me-4u.com
It is currently 20 Jul 2019

All times are UTC + 3 hours

Spoiler
Chat - temporary registration for foreign users (please leave your application here)







Post new topic Reply to topic  [ 31 posts ]  Go to page 1, 2  Next
Author Message
 
PostPosted: 07 Jul 2013 
Рарник и трушник
User avatar
Joined: 25 Dec 2009
Posts: 8665
Lоcаtion: Москва
Age: 53
Name: Виталий
Image
Thundercraaft - Fighting for Survival

Type: Full-length
Release date: 1984
Genre: Heavy Metal
Country of origin: Germany

1. Intro
2. Taste of Hell
3. Virgin Killer
4. On the Ladder of Madness
5. Face the Truth
6. L.A.
7. Sexual Virus
8. Life Is a Misery
9. Victim of Rock 'n' Roller
10. Wicked Boy
11. Final

Рип вычишен. Звук очень хороший. FLAC 16/44.
http://yadi.sk/d/5TV7vQqf6Zfen

ImageImage


Last edited by Vitaly65 on 16 Dec 2013, edited 1 time in total.

Top
 Profile  
 
 
PostPosted: 07 Jul 2013 
Хиппей (support team)
User avatar
Joined: 30 Jul 2007
Posts: 113555
Lоcаtion: Киев (Kyiv, UA)
Age: 46
Name: Andrey
:thanx:

mirror: F-Bit l Narod

_________________


Top
 Profile E-mail  
 
 
PostPosted: 07 Jul 2013 
Old Time Rock`n`Roll
User avatar
Joined: 23 Jun 2008
Posts: 3461
Lоcаtion: г.Ульяновск
Age: 40
Name: Константин
:thanx:


Top
 Profile  
 
 
PostPosted: 07 Jul 2013 
спирт 100%
User avatar
Joined: 22 Sep 2008
Posts: 4442
Age: 47
Name: Саня
:true: Спасибо!


Top
 Profile  
 
 
PostPosted: 07 Jul 2013 
Power Metal Maniac
User avatar
Joined: 09 Aug 2008
Posts: 6771
Lоcаtion: Москва
Age: 41
Name: Егор
:true:

_________________
Long Live Metal!


Top
 Profile  
 
 
PostPosted: 07 Jul 2013 
Я набрал 1000 сообщений!
Joined: 12 Dec 2008
Posts: 1066
Lоcаtion: BULGARIA
Age: 40
Name: DIMITЪR
Спасибочки :thanx: :thanx: :thanx: качествено :true: :true: :true:


Top
 Profile  
 
 
PostPosted: 07 Jul 2013 
Анатолий
User avatar
Joined: 18 Oct 2008
Posts: 3506
Lоcаtion: Армавир
Age: 42
Name: Анатолий
Огромное спасибо! :thanx: :true:


Top
 Profile E-mail  
 
 
PostPosted: 08 Jul 2013 
Хиппей (support team)
User avatar
Joined: 30 Jul 2007
Posts: 113555
Lоcаtion: Киев (Kyiv, UA)
Age: 46
Name: Andrey
Эх, хорош альбом :true: :true: :true:

Вокал ну очень напоминает Metal Priest(s) :dance:

Спасибо за еще одно очередное открытие :thanx:

_________________


Top
 Profile E-mail  
 
 
PostPosted: 08 Jul 2013 
Рарник и трушник
User avatar
Joined: 25 Dec 2009
Posts: 8665
Lоcаtion: Москва
Age: 53
Name: Виталий
Scatterbrain wrote:
Эх, хорош альбом :true: :true: :true:

Вокал ну очень напоминает Metal Priest(s) :dance:

Спасибо за еще одно очередное открытие :thanx:


Рад, друзья, что понравилось! :thanx:
Кстати, тут на днях цифранул в 24/96 MP (Metal Priests) - 1987 - Get It Now. :benya: Очень доволен саундом альбома. Как почищу, надо будет залить, уж больно хорош альбом! :benya:


Top
 Profile  
 
 
PostPosted: 08 Jul 2013 
Доктор энтомологии
User avatar
Joined: 22 Jan 2009
Posts: 9805
Lоcаtion: Даугавпилс
Age: 44
Name: Алексей
:true: Спасибо :thanx:


Top
 Profile  
 
 
PostPosted: 08 Jul 2013 
А может смените мне статус?..
User avatar
Joined: 24 Sep 2012
Posts: 856
Lоcаtion: Нижегородская обл.
Age: 49
Name: Вячеслав
Огромное спасибо! :thanx: Классный альбом, очень понравился! :true:

_________________
Image


Top
 Profile E-mail  
 
 
PostPosted: 08 Jul 2013 
Труъ
User avatar
Joined: 27 Feb 2009
Posts: 186
Lоcаtion: Питер
Age: 52
Name: Олег
Большое спасибо ! :thanx:


Top
 Profile  
 
 
PostPosted: 08 Jul 2013 
Alive Again
User avatar
Joined: 17 Dec 2008
Posts: 4747
Lоcаtion: Курск Воронеж Оскол
Age: 44
Name: Дмитрий
:thanx: :meloman:


Top
 Profile E-mail  
 
 
PostPosted: 08 Jul 2013 
Я набрал 1000 сообщений!
Joined: 24 Oct 2009
Posts: 2233
Lоcаtion: Оренбург
Age: 55
Name: Юра
Спасибо!

_________________
:dash: I am happy!


Top
 Profile E-mail  
 
 
PostPosted: 09 Jul 2013 
дядя Миша
User avatar
Joined: 17 Oct 2008
Posts: 3152
Lоcаtion: USSR
Age: 56
Name: Khy
:true: Спасибо, забираем. Красота примитивная!


Top
 Profile  
 
 
PostPosted: 09 Jul 2013 
\m/ 80 см сала \m/
User avatar
Joined: 12 Mar 2012
Posts: 2590
Age: 26
Name: Nick
.cue | +
Code:
REM GENRE Metal
REM DATE 1984
PERFORMER "Thundercraaft "
TITLE "Fighting for Survival(vinyl rip 16/44)"
FILE "01_Intro.flac " WAVE
  TRACK 01 AUDIO
    TITLE "Intro"
    PERFORMER "Thundercraaft"
    INDEX 01 00:00:00
FILE "02_Taste of Hell.flac" WAVE
  TRACK 02 AUDIO
    TITLE "Taste of Hell"
    PERFORMER "Thundercraaft"
    INDEX 01 00:00:00
FILE "03_Virgin Killer.flac" WAVE
  TRACK 03 AUDIO
    TITLE "Virgin Killer"
    PERFORMER "Thundercraaft"
    INDEX 01 00:00:00
FILE "04_On the Ladder of Madness.flac" WAVE
  TRACK 04 AUDIO
    TITLE "On the Ladder of Madness"
    PERFORMER "Thundercraaft"
    INDEX 01 00:00:00
FILE "05_Face the Truth.flac" WAVE
  TRACK 05 AUDIO
    TITLE "Face the Truth"
    PERFORMER "Thundercraaft"
    INDEX 01 00:00:00
FILE "06_L.A.flac" WAVE
  TRACK 06 AUDIO
    TITLE "L.A."
    PERFORMER "Thundercraaft"
    INDEX 01 00:00:00
FILE "07_Sexual Virus.flac" WAVE
  TRACK 07 AUDIO
    TITLE "Sexual Virus"
    PERFORMER "Thundercraaft"
    INDEX 01 00:00:00
FILE "08_Life Is a Misery.flac" WAVE
  TRACK 08 AUDIO
    TITLE "Life Is a Misery"
    PERFORMER "Thundercraaft"
    INDEX 01 00:00:00
FILE "09_Victim of Rock 'n' Roller.flac" WAVE
  TRACK 09 AUDIO
    TITLE "Victim of Rock 'n' Roller"
    PERFORMER "Thundercraaft"
    INDEX 01 00:00:00
FILE "10_Wicked Boy.flac" WAVE
  TRACK 10 AUDIO
    TITLE "Wicked Boy"
    PERFORMER "Thundercraaft"
    INDEX 01 00:00:00
FILE "11_Final.flac" WAVE
  TRACK 11 AUDIO
    TITLE "Final"
    PERFORMER "Thundercraaft"
    INDEX 01 00:00:00

_________________
1990 AUROPHON BRAINSTORM (Germany) - lossless
1994 MAUSOLEUM CLASSIX (Belgium-Germany) - lossless
1998 VA - GRIM HARVEST - Complete Metal Massacre Volumes I-XII


Top
 Profile  
 
 
PostPosted: 13 Jul 2013 
дядя Миша
User avatar
Joined: 17 Oct 2008
Posts: 3152
Lоcаtion: USSR
Age: 56
Name: Khy
Прослушал полностью. Рип отличный. Музыка? Не удивительно,что эта команда затерялась между множеством групп того времени. У них просто не было шанса быть услышанными. Лично Я, попадись мне пластинка в 80-е ,просто тут же попытался от неё избавиться. В их музыке нет абсолютно нечего стоящего. Худшее,из того,что Я прослушивал за 35 лет.


Last edited by VARVAAR on 13 Jul 2013, edited 1 time in total.

Top
 Profile  
 
 
PostPosted: 13 Jul 2013 
А может смените мне статус?..
User avatar
Joined: 24 Sep 2012
Posts: 856
Lоcаtion: Нижегородская обл.
Age: 49
Name: Вячеслав
Отличный альбом, с удовольствием слушаю! Для полного счастья не хватает фоточек пластиночки!

_________________
Image


Top
 Profile E-mail  
 
 
PostPosted: 13 Jul 2013 
дядя Миша
User avatar
Joined: 17 Oct 2008
Posts: 3152
Lоcаtion: USSR
Age: 56
Name: Khy
slayer19
Quote:
Отличный альбом, с удовольствием слушаю!

Да,брось :benya: Это же 84 год! В этот год вышли шедевры у : Metallica,Judas priest,Scorpions,Iron Maiden,Loudness,и.тд,и.т.п.
Ну и сравни этот thundercraft с любым из этих альбомов! Вот Я, о чём пытаюсь сказать. Уровень абсолютно не тот!


Top
 Profile  
 
 
PostPosted: 13 Jul 2013 
Хиппей (support team)
User avatar
Joined: 30 Jul 2007
Posts: 113555
Lоcаtion: Киев (Kyiv, UA)
Age: 46
Name: Andrey
VARVAAR wrote:
Уровень абсолютно не тот!

А цепляет музыка не меньше, нежели Присты, Майдены, Стилеры и прочие гранды жанра :true:
И уж тем более не хуже тех же Metal Priests 86-го года, которых у нас почему-то все привыкли чуть ли не боготворить.

_________________


Top
 Profile E-mail  
 
Display posts from previous:  Sort by  
Post new topic Reply to topic  [ 31 posts ]  Go to page 1, 2  Next

All times are UTC + 3 hours


Who is online

Users browsing this forum: No registered users and 3 guests


You cannot post new topics in this forum
You cannot reply to topics in this forum
You cannot edit your posts in this forum
You cannot delete your posts in this forum
You cannot post attachments in this forum

Search for:
Яндекс.Метрика
Powered by phpBB © 2000, 2002, 2005, 2007 phpBB Group