\m/ 80's metal \m/

Информационно-аналитический форум "80 см пыли" (In Search We Trust) "У нас никто никуда не спешит"
Me For You - http://me-4u.com
It is currently 22 Aug 2019

All times are UTC + 3 hours

Spoiler
Chat - temporary registration for foreign users (please leave your application here)







Post new topic Reply to topic  [ 14 posts ] 
Author Message
 
PostPosted: 03 Jul 2013 
5-speed satisfactor
User avatar
Joined: 16 Feb 2009
Posts: 3755
Lоcаtion: New York, USA
Age: 41
Name: Leonid
Image

Группа: Black Death
Страна: США
Aльбом: Black Death
Год: 1984
Стиль: Heavy Metal

Состав:
Siki Spacek Guitars, Vocals
Darrell Harris Bass
Greg Hicks Guitars
Phil Bullard (R.I.P. 2008) Drums

Ссылка:

http://www.metal-archives.com/albums/Bl ... Death/8654

Главная пластинка: 12"

1. Night of the Living Death 04:27
2. The Hunger 05:30
3. When Tears Run Red (From Love Lost Yesterday) 05:41
4. Fear No Evil 06:08
5. The Scream of the Iron Messiah 03:43
6. Streetwalker 06:30
7. Black Death 09:18

Бонус пластинка: 7"

8. Here Comes the Wrecking Crew 04:24
9. Retribution 05:28

Оцифровал в 2004ом году.

Вертак: Pro-Ject 1.2
Cartridge: REGA bias
АЦП: Terratec Aureon Universe 7.1 со встроенным phono pre-amp

Никакой обработки запись не подвергалась за исключением сведения громкости до тишины между треками и удалению нескольких щелчков. Громкость после оцифровки не регулировалась. Я ее отрегулировал во время записи.

Винил любезно предоставил King Fowley.

У вас 2 недели:

https://www.wetransfer.com/downloads/5f ... 827/f9b554

_________________
Death rules! Metal to all who oppose!


Last edited by metaleonid on 03 Jul 2013, edited 1 time in total.

Top
 Profile  
 
 
PostPosted: 03 Jul 2013 
Хиппей (support team)
User avatar
Joined: 30 Jul 2007
Posts: 114038
Lоcаtion: Киев (Kyiv, UA)
Age: 46
Name: Andrey
:thanx:

mirror: F-Bit l Narod

_________________


Top
 Profile E-mail  
 
 
PostPosted: 03 Jul 2013 
Хиппей (support team)
User avatar
Joined: 30 Jul 2007
Posts: 114038
Lоcаtion: Киев (Kyiv, UA)
Age: 46
Name: Andrey
Альбом и группа известные, тута и говорить нечего :dance:
А вот рип оценить щас не могу. Ухо опухло левое сбоку и снова наушник левый навернулся :cry:

_________________


Top
 Profile E-mail  
 
 
PostPosted: 03 Jul 2013 
Анатолий
User avatar
Joined: 18 Oct 2008
Posts: 3525
Lоcаtion: Армавир
Age: 42
Name: Анатолий
Спасибо!!! :thanx: :true:


Top
 Profile E-mail  
 
 
PostPosted: 03 Jul 2013 
Рарник и трушник
User avatar
Joined: 25 Dec 2009
Posts: 8726
Lоcаtion: Москва
Age: 54
Name: Виталий
Леонид, спасибо!!! :thanx:
Я чесговоря, раньше не слышал эту группу. По фото, так вылитые блэкдез, афро-американская черная смертушка. :benya: И это лучше, чем репп в подворотне бубнить. :benya:
Альбом понравился, особенно трек 5. The Scream of the Iron Messiah. Звучит очень хорошо, косяков не заметил. Вокал, кстати, Лемми напоминает, да и музон уходит корнями в Motorhead, тока на более продвинутый. Есть конечно сырые моменты в материале, но в целом очень хорошо! :pardon:


Top
 Profile  
 
 
PostPosted: 04 Jul 2013 
5-speed satisfactor
User avatar
Joined: 16 Feb 2009
Posts: 3755
Lоcаtion: New York, USA
Age: 41
Name: Leonid
Виталик, рассмешил с blackdeath... :benya: :benya: :benya: :benya: :benya: :benya: :benya:
Да, они вот одни из немногих негров, что играют металл. Я, если честно, сам еще альбом толком полностью не прослушал. Несколько треков только.

Данный альбом выходил в наборе: 12" LP и 7" single. 7" single никогда отдельно не продавался. Здесь оба.

Я сейчас никаких новых оцифровок сам с винила делать не буду. Но то, что я когда то сделал, постaраюсь скоро выложить. Incubus (другой, не мериканский), Blood Lust и Chevy.

PS. Негров в металле чуть чуть больше чем в хоккее.
PPS. Андрюха ухо лечи, наушник ремонтируй.

_________________
Death rules! Metal to all who oppose!


Top
 Profile  
 
 
PostPosted: 04 Jul 2013 
Рарник и трушник
User avatar
Joined: 25 Dec 2009
Posts: 8726
Lоcаtion: Москва
Age: 54
Name: Виталий
metaleonid wrote:
PS. Негров в металле чуть чуть больше чем в хоккее.

Да уж, они все бубнят реп и гоняют в баскетбол. :benya: (И только мертвый негр не идёт играть в баскетбол (с) "Запрещённые барабанщики") :umnik:
metaleonid wrote:
Blood Lust

Какой? Guilty as Sin? Я кстати тоже цифровал его. :umnik:


Top
 Profile  
 
 
PostPosted: 04 Jul 2013 
5-speed satisfactor
User avatar
Joined: 16 Feb 2009
Posts: 3755
Lоcаtion: New York, USA
Age: 41
Name: Leonid
Сейчас не помню, но скорее всего да. http://www.metal-archives.com/bands/Bloodlust/1524

_________________
Death rules! Metal to all who oppose!


Top
 Profile  
 
 
PostPosted: 04 Jul 2013 
Рарник и трушник
User avatar
Joined: 25 Dec 2009
Posts: 8726
Lоcаtion: Москва
Age: 54
Name: Виталий
Понятно. :umnik:
Кстати, вспомнил ещё один бэнд - Sound Barrier http://www.metal-archives.com/albums/So ... ight/29476
Неплохой альбомчик. Есть кассета от Banzai, всё никак не оцифрую прилично. :umnik:


Top
 Profile  
 
 
PostPosted: 04 Jul 2013 
Хиппей (support team)
User avatar
Joined: 30 Jul 2007
Posts: 114038
Lоcаtion: Киев (Kyiv, UA)
Age: 46
Name: Andrey
Vitaly65 wrote:
Кстати, вспомнил ещё один бэнд - Sound Barrier

Угу, знаем :dance:
Они даже... винил-магазин имеют http://www.sound-barrier.ru :true: :true: :true: :crazy:

_________________


Top
 Profile E-mail  
 
 
PostPosted: 04 Jul 2013 
Рарник и трушник
User avatar
Joined: 25 Dec 2009
Posts: 8726
Lоcаtion: Москва
Age: 54
Name: Виталий
Scatterbrain wrote:
Они даже... винил-магазин имеют


Ну это тот самый магазин, где я в 90-х винил покупал. Тогда они были маленьким закутком в Доме книги на Новом Арбате, да и винил был нужен 10-15 челам, а ща да, Гигант с соответствующими ценами, е-баю и не снилось. :benya:


Top
 Profile  
 
 
PostPosted: 04 Jul 2013 
Хиппей (support team)
User avatar
Joined: 30 Jul 2007
Posts: 114038
Lоcаtion: Киев (Kyiv, UA)
Age: 46
Name: Andrey
Vitaly65 wrote:
в Доме книги на Новом Арбате

Ой, и я кажись там бывал тогда :shok:

_________________


Top
 Profile E-mail  
 
 
PostPosted: 05 Jul 2013 
\m/ 80 см сала \m/
User avatar
Joined: 12 Mar 2012
Posts: 2590
Age: 26
Name: Nick
.cue | +
Code:
REM GENRE Metal
REM DATE 1984
PERFORMER "Black Death"
TITLE "Black Death (vinyl rip 16/44)"
FILE "01. Night Of The Living Dead.flac" WAVE
  TRACK 01 AUDIO
    TITLE "Night of the Living Death"
    PERFORMER "Black Death "
    INDEX 01 00:00:00
FILE "02. The Hunger.flac" WAVE
  TRACK 02 AUDIO
    TITLE "The Hunger"
    PERFORMER "Black Death "
    INDEX 01 00:00:00
FILE "03. When Tears Run Red (From Love Lost Yesterday).flac" WAVE
  TRACK 03 AUDIO
    TITLE "When Tears Run Red (From Love Lost Yesterday"
    PERFORMER "Black Death "
    INDEX 01 00:00:00
FILE "04. Fear No Evil.flac" WAVE
  TRACK 04 AUDIO
    TITLE "Fear No Evil"
    PERFORMER "Black Death "
    INDEX 01 00:00:00
FILE "05. The Scream Of The Iron Messiah.flac" WAVE
  TRACK 05 AUDIO
    TITLE "The Scream of the Iron Messiah"
    PERFORMER "Black Death "
    INDEX 01 00:00:00
FILE "06. Streetwalker.flac" WAVE
  TRACK 06 AUDIO
    TITLE "Streetwalker"
    PERFORMER "Black Death "
    INDEX 01 00:00:00
FILE "07. Black Death.flac" WAVE
  TRACK 07 AUDIO
    TITLE "Black Death"
    PERFORMER "Black Death "
    INDEX 01 00:00:00
FILE "08. Here Comes The Wrecking Crew.flac" WAVE
  TRACK 08 AUDIO
    TITLE "Here Comes the Wrecking Crew"
    PERFORMER "Black Death "
    INDEX 01 00:00:00
FILE "09. Retribution.flac" WAVE
  TRACK 09 AUDIO
    TITLE "Retribution"
    PERFORMER "Black Death "
    INDEX 01 00:00:00

_________________
1990 AUROPHON BRAINSTORM (Germany) - lossless
1994 MAUSOLEUM CLASSIX (Belgium-Germany) - lossless
1998 VA - GRIM HARVEST - Complete Metal Massacre Volumes I-XII


Top
 Profile  
 
 
PostPosted: 23 Sep 2013 
Работнечег
User avatar
Joined: 28 Aug 2007
Posts: 5939
Lоcаtion: г. Москва
Age: 30
Name: Дима
Спасибо Лёне и Кингу за рип и Evrehard'у за куй! :thanx:


Top
 Profile E-mail  
 
Display posts from previous:  Sort by  
Post new topic Reply to topic  [ 14 posts ] 

All times are UTC + 3 hours


Who is online

Users browsing this forum: No registered users and 1 guest


You cannot post new topics in this forum
You cannot reply to topics in this forum
You cannot edit your posts in this forum
You cannot delete your posts in this forum
You cannot post attachments in this forum

Search for:
Яндекс.Метрика
Powered by phpBB © 2000, 2002, 2005, 2007 phpBB Group