\m/ 80's metal \m/

Информационно-аналитический форум "80 см пыли" (In Search We Trust) "У нас никто никуда не спешит"
Me For You - http://me-4u.com
It is currently 15 Dec 2018

All times are UTC + 3 hours

Spoiler
Chat - temporary registration for foreign users (please leave your application here)







Post new topic Reply to topic  [ 6 posts ] 
Author Message
 
PostPosted: 23 Jul 2012 
хард н хэвщик (support team)
User avatar
Joined: 02 Jun 2008
Posts: 16880
Lоcаtion: Н.Новгород
Age: 31
Name: Артем
Image

Image

1. Restless
2. Mother Is Crying
3. Fool For Your Love
4. Words Of Love
5. Land Of My Dreams
6. My World
7. Written On The Wall
8. Self Control
9. Troubles

Спасибо Сане Спрут за предоставленный винил и моему земляку за рип :thanx: Фонограмма не подвергалась никакой обработке - ни fade in/fade out, ни эквалайзинг, ни noise cleaner и пр. Просто голый трансфер 1:1 с линейного выхода винильного проигрывателя на линейный вход компьютера.
Винил попался непростой - деформированный, игла постоянно скакала, пришлось её вес увеличить до 2.5 грамм. Косяки всё же присутствуют в некоторых песнях


Narod

p.s. вокалист на Troubles напоминает Алекса из Black Angels :shok:


Top
 Profile  
 
 
PostPosted: 23 Jul 2012 
Хиппей (support team)
User avatar
Joined: 30 Jul 2007
Posts: 108909
Lоcаtion: Киев (Kyiv, UA)
Age: 45
Name: Andrey
McKagan wrote:
вокалист на Troubles напоминает Алекса из Black Angels

По акценту или внешне? :shok:

_________________


Top
 Profile E-mail  
 
 
PostPosted: 23 Jul 2012 
Хиппей (support team)
User avatar
Joined: 30 Jul 2007
Posts: 108909
Lоcаtion: Киев (Kyiv, UA)
Age: 45
Name: Andrey
Спасибо всем за рип, да :true:

mirror: MultiUp l Narod

Image

cue
FILE "helpless88.wav" WAVE
TRACK 01 AUDIO
TITLE "Restless"
INDEX 01 00:00:00
TRACK 02 AUDIO
TITLE "Mother Is Crying"
INDEX 01 03:13:71
TRACK 03 AUDIO
TITLE "Fool For Your Love"
INDEX 01 06:44:15
TRACK 04 AUDIO
TITLE "Words Of Love"
INDEX 01 12:50:12
TRACK 05 AUDIO
TITLE "Land Of My Dreams"
INDEX 01 15:53:20
TRACK 06 AUDIO
TITLE "My World"
INDEX 01 19:15:60
TRACK 07 AUDIO
TITLE "Written On The Wall"
INDEX 01 22:33:51
TRACK 08 AUDIO
TITLE "Self Control"
INDEX 01 25:55:17
TRACK 09 AUDIO
TITLE "Troubles"
INDEX 01 29:24:27

spectrum
Image

_________________


Top
 Profile E-mail  
 
 
PostPosted: 23 Jul 2012 
хард н хэвщик (support team)
User avatar
Joined: 02 Jun 2008
Posts: 16880
Lоcаtion: Н.Новгород
Age: 31
Name: Артем
Scatterbrain wrote:
По акценту или внешне? :shok:

акцент :pardon:


Top
 Profile  
 
 
PostPosted: 23 Jul 2012 
Хиппей (support team)
User avatar
Joined: 30 Jul 2007
Posts: 108909
Lоcаtion: Киев (Kyiv, UA)
Age: 45
Name: Andrey
:ura:

Качаю :dance:

_________________


Top
 Profile E-mail  
 
 
PostPosted: 25 Jul 2012 
Хиппей (support team)
User avatar
Joined: 30 Jul 2007
Posts: 108909
Lоcаtion: Киев (Kyiv, UA)
Age: 45
Name: Andrey
Еще немного инфы по группе :arrow: viewtopic.php?f=112&t=3016 :fingal:

_________________


Top
 Profile E-mail  
 
Display posts from previous:  Sort by  
Post new topic Reply to topic  [ 6 posts ] 

All times are UTC + 3 hours


Who is online

Users browsing this forum: No registered users and 2 guests


You cannot post new topics in this forum
You cannot reply to topics in this forum
You cannot edit your posts in this forum
You cannot delete your posts in this forum
You cannot post attachments in this forum

Search for:
Яндекс.Метрика
cron
Powered by phpBB © 2000, 2002, 2005, 2007 phpBB Group