\m/ 80's metal \m/

Информационно-аналитический форум "80 см пыли" (In Search We Trust) "У нас никто никуда не спешит"
Me For You - http://me-4u.com
It is currently 06 Apr 2020

All times are UTC + 3 hours

Spoiler
Chat - temporary registration for foreign users (please leave your application here)







Post new topic Reply to topic  [ 49 posts ]  Go to page Previous  1, 2, 3
Author Message
 
PostPosted: 09 Dec 2008 
Alive Again
User avatar
Joined: 23 Jul 2008
Posts: 3350
Age: 48
Name: Кирилл
Image
Invader (Germ.) - 1986 - Children of War (LP Rip 16/44) (EAC-FLAC)

https://yadi.sk/d/cEuYuNTs0_TFnw


log
Exact Audio Copy V1.0 beta 3 from 29. August 2011

Отчёт EAC об извлечении, выполненном 13. марта 2020, 22:44

Invader / Children of War

Дисковод: HL-DT-STBD-RE BE08LU20 Adapter: 1 ID: 0

Режим чтения : Достоверность
Использование точного потока : Да
Отключение кэша аудио : Да
Использование указателей C2 : Нет

Коррекция смещения при чтении : 667
Способность читать области Lead-in и Lead-out : Нет
Заполнение пропущенных сэмплов тишиной : Да
Удаление блоков с тишиной в начале и конце : Нет
При вычислениях CRC использовались нулевые сэмплы : Да
Интерфейс : Встроенный Win32-интерфейс для Win NT/2000

Выходной формат : Пользовательский кодировщик
Выбранный битрейт : 768 kBit/s
Качество : Высокий
Добавление ID3-тега : Нет
Утилита сжатия : C:\Program Files (x86)\Exact Audio Copy\FLAC\FLAC.EXE
Дополнительные параметры : -6 -V -T "ARTIST=%artist%" -T "TITLE=%title%" -T "ALBUM=%albumtitle%" -T "DATE=%year%" -T "TRACKNUMBER=%tracknr%" -T "GENRE=%genre%" -T "COMMENT=%comment%" -T "BAND=%albuminterpret%" -T "ALBUMARTIST=%albuminterpret%" -T "COMPOSER=%composer%" %haslyrics%--tag-from-file=LYRICS="%lyricsfile%"%haslyrics% -T "DISCNUMBER=%cdnumber%" -T "TOTALDISCS=%totalcds%" -T "TOTALTRACKS=%numtracks%" %hascover%--picture="%coverfile%"%hascover% %source% -o %dest%


TOC извлечённого CD

Трек | Старт | Длительность | Начальный сектор | Конечный сектор
---------------------------------------------------------------------
1 | 0:00.00 | 3:54.39 | 0 | 17588
2 | 3:54.39 | 4:59.34 | 17589 | 40047
3 | 8:53.73 | 4:31.17 | 40048 | 60389
4 | 13:25.15 | 2:47.20 | 60390 | 72934
5 | 16:12.35 | 4:05.61 | 72935 | 91370
6 | 20:18.21 | 4:16.13 | 91371 | 110583
7 | 24:34.34 | 4:28.49 | 110584 | 130732
8 | 29:03.08 | 5:04.20 | 130733 | 153552
9 | 34:07.28 | 3:32.07 | 153553 | 169459
10 | 37:39.35 | 3:59.11 | 169460 | 187395


Характеристики диапазона извлечения и сообщения об ошибках

Выбранный диапазон

Имя файла C:\Users\я\Music\Converted\Invader - 1986 - Children of War\Invader - Children of War.wav

Пиковый уровень 100.0 %
Скорость извлечения 1.9 X
Качество диапазона 99.9 %
CRC копии AA64087D
Копирование... OK

Ошибок не произошло


AccurateRip: сводка

Трек 1 отсутствует в базе данных
Трек 2 отсутствует в базе данных
Трек 3 отсутствует в базе данных
Трек 4 отсутствует в базе данных
Трек 5 отсутствует в базе данных
Трек 6 отсутствует в базе данных
Трек 7 отсутствует в базе данных
Трек 8 отсутствует в базе данных
Трек 9 отсутствует в базе данных
Трек 10 отсутствует в базе данных

Ни одного трека нет в базе AccurateRip

Конец отчёта

==== Контрольная сумма отчёта EDF3905F8C22DB7A66CE5B0D1D05EC983E7EBAC64301AF37AEFD9C8545428F63 ====

cue
REM GENRE "Heavy Metal"
REM DATE 1986
REM DISCID 7F09C20A
REM COMMENT "ExactAudioCopy v1.0b3"
PERFORMER "Invader"
TITLE "Children of War"
FILE "Invader - Children of War.flac" WAVE
TRACK 01 AUDIO
TITLE "The Thing"
PERFORMER "Invader"
INDEX 01 00:00:00
TRACK 02 AUDIO
TITLE "Victory"
PERFORMER "Invader"
INDEX 01 03:54:39
TRACK 03 AUDIO
TITLE "March for Victory"
PERFORMER "Invader"
INDEX 01 08:53:73
TRACK 04 AUDIO
TITLE "Twilight of the Gods"
PERFORMER "Invader"
INDEX 01 13:25:15
TRACK 05 AUDIO
TITLE "Black Sex"
PERFORMER "Invader"
INDEX 01 16:12:35
TRACK 06 AUDIO
TITLE "State Penitentiary for Mental Disorder"
PERFORMER "Invader"
INDEX 01 20:18:21
TRACK 07 AUDIO
TITLE "Land of the North"
PERFORMER "Invader"
INDEX 01 24:34:34
TRACK 08 AUDIO
TITLE "Children of War"
PERFORMER "Invader"
INDEX 01 29:03:08
TRACK 09 AUDIO
TITLE "Flying High"
PERFORMER "Invader"
INDEX 01 34:07:28
TRACK 10 AUDIO
TITLE "Days of Sorrow"
PERFORMER "Invader"
INDEX 01 37:39:35





Немцы, единственный альбом. Может есть у кого?

1986 - Children of War

1.The thing
2.Victory
3.March for victory
4.Twilight of the gods
5.Black sex
6.State penitentiary for mental disorder
7.Land of the north
8.Children of war
9.Flying high
10.Days of sorrow

Заранее благодарен

_________________
COS I WAS BORN TO ROCK
AND I'LL NEVER EVER STOP


Top
 Profile  
 
 
PostPosted: 14 Mar 2020 
Хиппей (support team)
User avatar
Joined: 30 Jul 2007
Posts: 118471
Lоcаtion: Киев (Kyiv, UA)
Age: 46
Name: Andrey
Vitaly65 wrote:
В новую тему?

Ну да, начиная с твоего сообщения.

Vitaly65 wrote:
Да, жутко сорри, для ускорения сюда залил, поздно было, устал, отрубался, тему создать поленился. :fingal:

:shok: :shok: :shok:
Чы чо извиняешься из-за непонятно чего?
Тут, бывает, на голову насрут сами себе и не видят, а ты разок неопределённо запостил сообщение (ещё не ясно - оставлять рип с диска, бывшего винила, тут, или уносить в винил-рипы), и сразу чуть ли не бахилы натянул и пополз.
Виталь, ты чо? :shok:
Прекратить это вот самое фу :fingal:

_________________


Top
 Profile E-mail  
 
 
PostPosted: 15 Mar 2020 
А может смените мне статус?..
Joined: 03 Jul 2009
Posts: 897
Lоcаtion: Serbia
Name: Laki
:thanx:


Top
 Profile E-mail  
 
 
PostPosted: 15 Mar 2020 
Хиппей (support team)
User avatar
Joined: 30 Jul 2007
Posts: 118471
Lоcаtion: Киев (Kyiv, UA)
Age: 46
Name: Andrey
Чёт не покатил мне альбом. Третья лига германского хэви :(

А вот на кого похож вокал, до сих пор не могу понять :scratch:

5/10

_________________


Top
 Profile E-mail  
 
 
PostPosted: 19 Mar 2020 
Хиппей (support team)
User avatar
Joined: 30 Jul 2007
Posts: 118471
Lоcаtion: Киев (Kyiv, UA)
Age: 46
Name: Andrey
Scatterbrain wrote:
Третья лига германского хэви

Песенку "Black Sex" все слышали?
Все текст поняли? :tro:

_________________


Top
 Profile E-mail  
 
 
PostPosted: 19 Mar 2020 
Хиппей (support team)
User avatar
Joined: 30 Jul 2007
Posts: 118471
Lоcаtion: Киев (Kyiv, UA)
Age: 46
Name: Andrey
Сообщение Витая вшито в первый пост. Сам топик переносится в виниловые рипы :kro:

_________________


Top
 Profile E-mail  
 
 
PostPosted: 19 Mar 2020 
Хиппей (support team)
User avatar
Joined: 30 Jul 2007
Posts: 118471
Lоcаtion: Киев (Kyiv, UA)
Age: 46
Name: Andrey
Кстати, у вокалиста до сих пор своя собственная Присто-кавер-группа существует :arrow: https://www.facebook.com/ProjectPriest

Image

https://www.project-priest.de

https://www.youtube.com/channel/UCZX2cm ... nKZe7Xs1zw

_________________


Top
 Profile E-mail  
 
 
PostPosted: 21 Mar 2020 
Рарник и трушник
User avatar
Joined: 25 Dec 2009
Posts: 9097
Lоcаtion: Москва
Age: 54
Name: Виталий
Scatterbrain wrote:
Песенку "Black Sex" все слышали?
Все текст поняли? :tro:

Это когда негр с негром? :benya:


Top
 Profile  
 
 
PostPosted: 24 Mar 2020 
Хиппей (support team)
User avatar
Joined: 30 Jul 2007
Posts: 118471
Lоcаtion: Киев (Kyiv, UA)
Age: 46
Name: Andrey
Дак вот послушай лирику :tro: :tro: :tro:

_________________


Top
 Profile E-mail  
 
 
PostPosted: 24 Mar 2020 
Труъ
User avatar
Joined: 28 Mar 2013
Posts: 190
Lоcаtion: Parana-Brazil
Age: 55
Name: Pedro Gabriel Lanza
:thanx:


Top
 Profile E-mail  
 
Display posts from previous:  Sort by  
Post new topic Reply to topic  [ 49 posts ]  Go to page Previous  1, 2, 3

All times are UTC + 3 hours


Who is online

Users browsing this forum: No registered users and 2 guests


You cannot post new topics in this forum
You cannot reply to topics in this forum
You cannot edit your posts in this forum
You cannot delete your posts in this forum
You cannot post attachments in this forum

Search for:
Яндекс.Метрика
Powered by phpBB © 2000, 2002, 2005, 2007 phpBB Group