\m/ 80's metal \m/

Информационно-аналитический форум "80 см пыли" (In Search We Trust) "У нас никто никуда не спешит"
Me For You - http://me-4u.com
It is currently 28 Feb 2020

All times are UTC + 3 hours

Spoiler
Chat - temporary registration for foreign users (please leave your application here)







Post new topic Reply to topic  [ 21 posts ]  Go to page Previous  1, 2
Author Message
 
PostPosted: 27 Jan 2020 
Хиппей (support team)
User avatar
Joined: 30 Jul 2007
Posts: 117693
Lоcаtion: Киев (Kyiv, UA)
Age: 46
Name: Andrey
Mercy Rule - 1990 - Overruled (R.E.X. Music – REXR 0893) (UK) - vinyl rip 24/96

mirror: Telega l Ur-Files l Uloz l Narod

cue
FILE "Mercy Rule – Overruled (side 1).flac" MP3

TRACK 01 AUDIO
TITLE "You Lied To Me"
PERFORMER "Mercy Rule"
INDEX 01 00:00:00
TRACK 02 AUDIO
TITLE "Cecilia"
PERFORMER "Mercy Rule"
INDEX 01 03:12:50
TRACK 03 AUDIO
TITLE "Real Love"
PERFORMER "Mercy Rule"
INDEX 01 06:42:39
TRACK 04 AUDIO
TITLE "Lonely Heart"
PERFORMER "Mercy Rule"
INDEX 01 10:15:05
TRACK 05 AUDIO
TITLE "Don't Cha Know"
PERFORMER "Mercy Rule"
INDEX 01 13:49:26
FILE "Mercy Rule – Overruled (side 2).flac" MP3

TRACK 06 AUDIO
TITLE "Black And White"
PERFORMER "Mercy Rule"
INDEX 01 00:00:00
TRACK 07 AUDIO
TITLE "Prodigal"
PERFORMER "Mercy Rule"
INDEX 01 04:46:04
TRACK 08 AUDIO
TITLE "If You Only Knew"
PERFORMER "Mercy Rule"
INDEX 01 08:07:14
TRACK 09 AUDIO
TITLE "There's A Love"
PERFORMER "Mercy Rule"
INDEX 01 14:09:10
TRACK 10 AUDIO
TITLE "Stand Up On The Rock"
PERFORMER "Mercy Rule"
INDEX 01 17:18:56

_________________


Top
 Profile E-mail  
 
Display posts from previous:  Sort by  
Post new topic Reply to topic  [ 21 posts ]  Go to page Previous  1, 2

All times are UTC + 3 hours


Who is online

Users browsing this forum: No registered users and 1 guest


You cannot post new topics in this forum
You cannot reply to topics in this forum
You cannot edit your posts in this forum
You cannot delete your posts in this forum
You cannot post attachments in this forum

Search for:
Яндекс.Метрика
Powered by phpBB © 2000, 2002, 2005, 2007 phpBB Group